  0
SECTION
  2
HEADER
  9
$ACADVER
  1
AC1021
  9
$ACADMAINTVER
 70
    50
  9
$DWGCODEPAGE
  3
ANSI_936
  9
$LASTSAVEDBY
  1
na.zhu
  9
$INSBASE
 10
0.0
 20
0.0
 30
0.0
  9
$EXTMIN
 10
15352.23525633354
 20
-7978.042122053921
 30
-0.00000001
  9
$EXTMAX
 10
18322.23525633354
 20
-5878.042122053921
 30
0.00000001
  9
$LIMMIN
 10
0.0
 20
0.0
  9
$LIMMAX
 10
420.0
 20
297.0
  9
$ORTHOMODE
 70
     0
  9
$REGENMODE
 70
     1
  9
$FILLMODE
 70
     1
  9
$QTEXTMODE
 70
     0
  9
$MIRRTEXT
 70
     0
  9
$LTSCALE
 40
1.0
  9
$ATTMODE
 70
     1
  9
$TEXTSIZE
 40
2.5
  9
$TRACEWID
 40
1.0
  9
$TEXTSTYLE
  7
Standard
  9
$CLAYER
  8
虚线
  9
$CELTYPE
  6
ByLayer
  9
$CECOLOR
 62
   256
  9
$CELTSCALE
 40
1.0
  9
$DISPSILH
 70
     0
  9
$DIMSCALE
 40
0.7
  9
$DIMASZ
 40
20.0
  9
$DIMEXO
 40
0.0
  9
$DIMDLI
 40
3.75
  9
$DIMRND
 40
0.0
  9
$DIMDLE
 40
0.0
  9
$DIMEXE
 40
10.0
  9
$DIMTP
 40
0.0
  9
$DIMTM
 40
0.0
  9
$DIMTXT
 40
30.0
  9
$DIMCEN
 40
0.0
  9
$DIMTSZ
 40
0.0
  9
$DIMTOL
 70
     0
  9
$DIMLIM
 70
     0
  9
$DIMTIH
 70
     0
  9
$DIMTOH
 70
     1
  9
$DIMSE1
 70
     0
  9
$DIMSE2
 70
     0
  9
$DIMTAD
 70
     0
  9
$DIMZIN
 70
     8
  9
$DIMBLK
  1

  9
$DIMASO
 70
     1
  9
$DIMSHO
 70
     1
  9
$DIMPOST
  1

  9
$DIMAPOST
  1

  9
$DIMALT
 70
     0
  9
$DIMALTD
 70
     3
  9
$DIMALTF
 40
0.03937007874016
  9
$DIMLFAC
 40
1.0
  9
$DIMTOFL
 70
     1
  9
$DIMTVP
 40
0.0
  9
$DIMTIX
 70
     0
  9
$DIMSOXD
 70
     0
  9
$DIMSAH
 70
     0
  9
$DIMBLK1
  1

  9
$DIMBLK2
  1

  9
$DIMSTYLE
  2
宋体
  9
$DIMCLRD
 70
     0
  9
$DIMCLRE
 70
     0
  9
$DIMCLRT
 70
     0
  9
$DIMTFAC
 40
1.0
  9
$DIMGAP
 40
20.0
  9
$DIMJUST
 70
     0
  9
$DIMSD1
 70
     0
  9
$DIMSD2
 70
     0
  9
$DIMTOLJ
 70
     1
  9
$DIMTZIN
 70
     8
  9
$DIMALTZ
 70
     0
  9
$DIMALTTZ
 70
     0
  9
$DIMUPT
 70
     0
  9
$DIMDEC
 70
     0
  9
$DIMTDEC
 70
     0
  9
$DIMALTU
 70
     2
  9
$DIMALTTD
 70
     3
  9
$DIMTXSTY
  7
Standard
  9
$DIMAUNIT
 70
     0
  9
$DIMADEC
 70
     0
  9
$DIMALTRND
 40
0.0
  9
$DIMAZIN
 70
     0
  9
$DIMDSEP
 70
    46
  9
$DIMATFIT
 70
     3
  9
$DIMFRAC
 70
     0
  9
$DIMLDRBLK
  1

  9
$DIMLUNIT
 70
     2
  9
$DIMLWD
 70
    -2
  9
$DIMLWE
 70
    -2
  9
$DIMTMOVE
 70
     1
  9
$DIMFXL
 40
1.0
  9
$DIMFXLON
 70
     0
  9
$DIMJOGANG
 40
0.7853981633974483
  9
$DIMTFILL
 70
     0
  9
$DIMTFILLCLR
 70
     0
  9
$DIMARCSYM
 70
     0
  9
$DIMLTYPE
  6

  9
$DIMLTEX1
  6

  9
$DIMLTEX2
  6

  9
$LUNITS
 70
     2
  9
$LUPREC
 70
     4
  9
$SKETCHINC
 40
1.0
  9
$FILLETRAD
 40
0.0
  9
$AUNITS
 70
     0
  9
$AUPREC
 70
     0
  9
$MENU
  1
.
  9
$ELEVATION
 40
0.0
  9
$PELEVATION
 40
0.0
  9
$THICKNESS
 40
0.0
  9
$LIMCHECK
 70
     0
  9
$CHAMFERA
 40
0.0
  9
$CHAMFERB
 40
0.0
  9
$CHAMFERC
 40
0.0
  9
$CHAMFERD
 40
0.0
  9
$SKPOLY
 70
     0
  9
$TDCREATE
 40
2455844.370532037
  9
$TDUCREATE
 40
2455844.037198704
  9
$TDUPDATE
 40
2459371.467162246
  9
$TDUUPDATE
 40
2459371.133828912
  9
$TDINDWG
 40
3.0030955671
  9
$TDUSRTIMER
 40
3.0030953935
  9
$USRTIMER
 70
     1
  9
$ANGBASE
 50
0.0
  9
$ANGDIR
 70
     0
  9
$PDMODE
 70
     0
  9
$PDSIZE
 40
0.0
  9
$PLINEWID
 40
0.0
  9
$SPLFRAME
 70
     0
  9
$SPLINETYPE
 70
     6
  9
$SPLINESEGS
 70
     8
  9
$HANDSEED
  5
EBFF
  9
$SURFTAB1
 70
     6
  9
$SURFTAB2
 70
     6
  9
$SURFTYPE
 70
     6
  9
$SURFU
 70
     6
  9
$SURFV
 70
     6
  9
$UCSBASE
  2

  9
$UCSNAME
  2

  9
$UCSORG
 10
0.0
 20
0.0
 30
0.0
  9
$UCSXDIR
 10
1.0
 20
0.0
 30
0.0
  9
$UCSYDIR
 10
0.0
 20
1.0
 30
0.0
  9
$UCSORTHOREF
  2

  9
$UCSORTHOVIEW
 70
     0
  9
$UCSORGTOP
 10
0.0
 20
0.0
 30
0.0
  9
$UCSORGBOTTOM
 10
0.0
 20
0.0
 30
0.0
  9
$UCSORGLEFT
 10
0.0
 20
0.0
 30
0.0
  9
$UCSORGRIGHT
 10
0.0
 20
0.0
 30
0.0
  9
$UCSORGFRONT
 10
0.0
 20
0.0
 30
0.0
  9
$UCSORGBACK
 10
0.0
 20
0.0
 30
0.0
  9
$PUCSBASE
  2

  9
$PUCSNAME
  2

  9
$PUCSORG
 10
0.0
 20
0.0
 30
0.0
  9
$PUCSXDIR
 10
1.0
 20
0.0
 30
0.0
  9
$PUCSYDIR
 10
0.0
 20
1.0
 30
0.0
  9
$PUCSORTHOREF
  2

  9
$PUCSORTHOVIEW
 70
     0
  9
$PUCSORGTOP
 10
0.0
 20
0.0
 30
0.0
  9
$PUCSORGBOTTOM
 10
0.0
 20
0.0
 30
0.0
  9
$PUCSORGLEFT
 10
0.0
 20
0.0
 30
0.0
  9
$PUCSORGRIGHT
 10
0.0
 20
0.0
 30
0.0
  9
$PUCSORGFRONT
 10
0.0
 20
0.0
 30
0.0
  9
$PUCSORGBACK
 10
0.0
 20
0.0
 30
0.0
  9
$USERI1
 70
     0
  9
$USERI2
 70
     0
  9
$USERI3
 70
     0
  9
$USERI4
 70
     0
  9
$USERI5
 70
     0
  9
$USERR1
 40
0.0
  9
$USERR2
 40
0.0
  9
$USERR3
 40
0.0
  9
$USERR4
 40
0.0
  9
$USERR5
 40
2.5
  9
$WORLDVIEW
 70
     1
  9
$SHADEDGE
 70
     3
  9
$SHADEDIF
 70
    70
  9
$TILEMODE
 70
     1
  9
$MAXACTVP
 70
    64
  9
$PINSBASE
 10
0.0
 20
0.0
 30
0.0
  9
$PLIMCHECK
 70
     0
  9
$PEXTMIN
 10
25.69999999999999
 20
19.5
 30
0.0
  9
$PEXTMAX
 10
231.3
 20
175.5
 30
0.0
  9
$PLIMMIN
 10
0.0
 20
0.0
  9
$PLIMMAX
 10
12.0
 20
9.0
  9
$UNITMODE
 70
     0
  9
$VISRETAIN
 70
     1
  9
$PLINEGEN
 70
     0
  9
$PSLTSCALE
 70
     1
  9
$TREEDEPTH
 70
  3020
  9
$CMLSTYLE
  2
Standard
  9
$CMLJUST
 70
     0
  9
$CMLSCALE
 40
20.0
  9
$PROXYGRAPHICS
 70
     1
  9
$MEASUREMENT
 70
     1
  9
$CELWEIGHT
370
    -1
  9
$ENDCAPS
280
     0
  9
$JOINSTYLE
280
     0
  9
$LWDISPLAY
290
     0
  9
$INSUNITS
 70
     4
  9
$HYPERLINKBASE
  1

  9
$STYLESHEET
  1
123.ctb
  9
$XEDIT
290
     1
  9
$CEPSNTYPE
380
     0
  9
$PSTYLEMODE
290
     1
  9
$FINGERPRINTGUID
  2
{FCEE42D1-58A1-4B44-A11D-2BA26D9E7B92}
  9
$VERSIONGUID
  2
{EF57BAB4-B594-42DD-9D56-9126E9679BB5}
  9
$EXTNAMES
290
     1
  9
$PSVPSCALE
 40
0.0
  9
$OLESTARTUP
290
     0
  9
$SORTENTS
280
   127
  9
$INDEXCTL
280
     0
  9
$HIDETEXT
280
     1
  9
$XCLIPFRAME
290
     0
  9
$HALOGAP
280
     0
  9
$OBSCOLOR
 70
   257
  9
$OBSLTYPE
280
     0
  9
$INTERSECTIONDISPLAY
280
     0
  9
$INTERSECTIONCOLOR
 70
   257
  9
$DIMASSOC
280
     2
  9
$PROJECTNAME
  1

  9
$CAMERADISPLAY
290
     0
  9
$LENSLENGTH
 40
50.0
  9
$CAMERAHEIGHT
 40
0.0
  9
$STEPSPERSEC
 40
2.0
  9
$STEPSIZE
 40
6.0
  9
$3DDWFPREC
 40
2.0
  9
$PSOLWIDTH
 40
5.0
  9
$PSOLHEIGHT
 40
80.0
  9
$LOFTANG1
 40
1.570796326794896
  9
$LOFTANG2
 40
1.570796326794896
  9
$LOFTMAG1
 40
0.0
  9
$LOFTMAG2
 40
0.0
  9
$LOFTPARAM
 70
     7
  9
$LOFTNORMALS
280
     1
  9
$LATITUDE
 40
37.795
  9
$LONGITUDE
 40
-122.394
  9
$NORTHDIRECTION
 40
0.0
  9
$TIMEZONE
 70
 -8000
  9
$LIGHTGLYPHDISPLAY
280
     1
  9
$TILEMODELIGHTSYNCH
280
     1
  9
$CMATERIAL
347
ED
  9
$SOLIDHIST
280
     1
  9
$SHOWHIST
280
     1
  9
$DWFFRAME
280
     2
  9
$DGNFRAME
280
     0
  9
$REALWORLDSCALE
290
     0
  9
$INTERFERECOLOR
 62
     1
  9
$INTERFEREOBJVS
345
FA
  9
$INTERFEREVPVS
346
F7
  9
$CSHADOW
280
     0
  9
$SHADOWPLANELOCATION
 40
0.0
  0
ENDSEC
  0
SECTION
  2
CLASSES
  0
CLASS
  1
ACDBDICTIONARYWDFLT
  2
AcDbDictionaryWithDefault
  3
ObjectDBX Classes
 90
        0
 91
        1
280
     0
281
     0
  0
CLASS
  1
DICTIONARYVAR
  2
AcDbDictionaryVar
  3
ObjectDBX Classes
 90
        0
 91
        4
280
     0
281
     0
  0
CLASS
  1
TABLESTYLE
  2
AcDbTableStyle
  3
ObjectDBX Classes
 90
     4095
 91
        1
280
     0
281
     0
  0
CLASS
  1
MATERIAL
  2
AcDbMaterial
  3
ObjectDBX Classes
 90
        0
 91
        3
280
     0
281
     0
  0
CLASS
  1
VISUALSTYLE
  2
AcDbVisualStyle
  3
ObjectDBX Classes
 90
     4095
 91
       16
280
     0
281
     0
  0
CLASS
  1
VLO-VL
  2
vlo_VL
  3
VL|AutoLISP based application
 90
        0
 91
        1
280
     0
281
     0
  0
CLASS
  1
SORTENTSTABLE
  2
AcDbSortentsTable
  3
ObjectDBX Classes
 90
        0
 91
        1
280
     0
281
     0
  0
CLASS
  1
DIMASSOC
  2
AcDbDimAssoc
  3
"ZcDbDimAssoc|Product Desc:     ZwDim ZRX App For Dimension|Company:          ZwSoft.|WEB Address:      www.zwsoft.com"
 90
        0
 91
        9
280
     0
281
     0
  0
CLASS
  1
SCALE
  2
AcDbScale
  3
ObjectDBX Classes
 90
     1153
 91
       33
280
     0
281
     0
  0
CLASS
  1
MLEADERSTYLE
  2
AcDbMLeaderStyle
  3
ACDB_MLEADERSTYLE_CLASS
 90
     4095
 91
        1
280
     0
281
     0
  0
CLASS
  1
CELLSTYLEMAP
  2
AcDbCellStyleMap
  3
ObjectDBX Classes
 90
     1152
 91
        1
280
     0
281
     0
  0
ENDSEC
  0
SECTION
  2
TABLES
  0
TABLE
  2
VPORT
  5
8
102
{ACAD_XDICTIONARY
360
6569
102
}
330
0
100
AcDbSymbolTable
 70
     2
  0
VPORT
  5
EBDA
330
8
100
AcDbSymbolTableRecord
100
AcDbViewportTableRecord
  2
*Active
 70
     0
 10
0.0
 20
0.0
 11
1.0
 21
1.0
 12
16915.8994170314
 22
-6745.450799072002
 13
0.0
 23
0.0
 14
10.0
 24
10.0
 15
10.0
 25
10.0
 16
0.0
 26
0.0
 36
1.0
 17
0.0
 27
0.0
 37
0.0
 40
3050.098087808125
 41
1.78125
 42
50.0
 43
0.0
 44
0.0
 50
0.0
 51
0.0
 71
     0
 72
  1000
 73
     1
 74
     3
 75
     0
 76
     0
 77
     0
 78
     0
281
     0
 65
     1
110
0.0
120
0.0
130
0.0
111
1.0
121
0.0
131
0.0
112
0.0
122
1.0
132
0.0
 79
     0
146
0.0
348
F6
 60
     3
 61
     5
292
     1
282
     1
141
0.0
142
0.0
 63
   250
421
  3355443
  0
ENDTAB
  0
TABLE
  2
LTYPE
  5
5
330
0
100
AcDbSymbolTable
 70
     4
  0
LTYPE
  5
14
330
5
100
AcDbSymbolTableRecord
100
AcDbLinetypeTableRecord
  2
ByBlock
 70
     0
  3

 72
    65
 73
     0
 40
0.0
  0
LTYPE
  5
15
330
5
100
AcDbSymbolTableRecord
100
AcDbLinetypeTableRecord
  2
ByLayer
 70
     0
  3

 72
    65
 73
     0
 40
0.0
  0
LTYPE
  5
16
330
5
100
AcDbSymbolTableRecord
100
AcDbLinetypeTableRecord
  2
Continuous
 70
     0
  3
Solid line
 72
    65
 73
     0
 40
0.0
  0
LTYPE
  5
1CC
330
5
100
AcDbSymbolTableRecord
100
AcDbLinetypeTableRecord
  2
ACAD_ISO02W100
 70
     0
  3
ISO dash __ __ __ __ __ __ __ __ __ __ __ __ __
 72
    65
 73
     2
 40
15.0
 49
12.0
 74
     0
 49
-3.0
 74
     0
  0
LTYPE
  5
1CE
330
5
100
AcDbSymbolTableRecord
100
AcDbLinetypeTableRecord
  2
CENTER2
 70
     0
  3
Center (.5x) ___ _ ___ _ ___ _ ___ _ ___ _ ___
 72
    65
 73
     4
 40
28.575
 49
19.05
 74
     0
 49
-3.174999999999999
 74
     0
 49
3.174999999999999
 74
     0
 49
-3.174999999999999
 74
     0
  0
LTYPE
  5
BB1
330
5
100
AcDbSymbolTableRecord
100
AcDbLinetypeTableRecord
  2
HIDDEN
 70
     0
  3
- - - - - - - - - - - - - - - - - - - -
 72
    65
 73
     2
 40
0.2
 49
0.1
 74
     0
 49
-0.1
 74
     0
  0
ENDTAB
  0
TABLE
  2
LAYER
  5
2
102
{ACAD_XDICTIONARY
360
1D0
102
}
330
0
100
AcDbSymbolTable
 70
    17
  0
LAYER
  5
10
330
2
100
AcDbSymbolTableRecord
100
AcDbLayerTableRecord
  2
0
 70
     0
 62
     7
  6
Continuous
370
    -3
390
F
347
EF
  0
LAYER
  5
134
330
2
100
AcDbSymbolTableRecord
100
AcDbLayerTableRecord
  2
Defpoints
 70
     0
 62
     7
  6
Continuous
290
     0
370
    -3
390
F
347
EF
  0
LAYER
  5
1C4
330
2
100
AcDbSymbolTableRecord
100
AcDbLayerTableRecord
  2
尺寸标注
 70
     0
 62
    80
  6
Continuous
370
    18
390
F
347
EF
1001
AcAecLayerStandard
1000

1000

  0
LAYER
  5
1C6
330
2
100
AcDbSymbolTableRecord
100
AcDbLayerTableRecord
  2
不打印层
 70
     0
 62
    30
  6
Continuous
290
     0
370
    35
390
F
347
EF
1001
AcAecLayerStandard
1000

1000

  0
LAYER
  5
1C7
330
2
100
AcDbSymbolTableRecord
100
AcDbLayerTableRecord
  2
图框层
 70
     0
 62
   255
  6
Continuous
370
    35
390
F
347
EF
1001
AcAecLayerStandard
1000

1000

  0
LAYER
  5
1C8
330
2
100
AcDbSymbolTableRecord
100
AcDbLayerTableRecord
  2
细实线
 70
     0
 62
   210
  6
Continuous
370
    18
390
F
347
EF
1001
AcAecLayerStandard
1000

1000

  0
LAYER
  5
1C9
330
2
100
AcDbSymbolTableRecord
100
AcDbLayerTableRecord
  2
虚线
 70
     0
 62
   130
  6
ACAD_ISO02W100
370
    18
390
F
347
EF
1001
AcAecLayerStandard
1000

1000

  0
LAYER
  5
1CD
330
2
100
AcDbSymbolTableRecord
100
AcDbLayerTableRecord
  2
中心线
 70
     0
 62
    10
  6
CENTER2
370
    18
390
F
347
EF
1001
AcAecLayerStandard
1000

1000

  0
LAYER
  5
1CF
330
2
100
AcDbSymbolTableRecord
100
AcDbLayerTableRecord
  2
中心线－圆
 70
     0
 62
    10
  6
Continuous
370
    18
390
F
347
EF
1001
AcAecLayerStandard
1000

1000

  0
LAYER
  5
BB2
330
2
100
AcDbSymbolTableRecord
100
AcDbLayerTableRecord
  2
DEFAULT_2
 70
     0
 62
     8
  6
HIDDEN
370
    -3
390
F
347
EF
  0
LAYER
  5
BB3
330
2
100
AcDbSymbolTableRecord
100
AcDbLayerTableRecord
  2
02___PRT_ALL_AXES
 70
     0
 62
     7
  6
Continuous
370
    -3
390
F
347
EF
  0
LAYER
  5
BB4
330
2
100
AcDbSymbolTableRecord
100
AcDbLayerTableRecord
  2
06___PRT_ALL_SURFS
 70
     0
 62
     7
  6
Continuous
370
    -3
390
F
347
EF
  0
LAYER
  5
26A2
330
2
100
AcDbSymbolTableRecord
100
AcDbLayerTableRecord
  2
尺寸标注层
 70
     0
 62
    80
  6
Continuous
370
    13
390
F
347
EF
1001
AcAecLayerStandard
1000

1000

  0
LAYER
  5
A141
330
2
100
AcDbSymbolTableRecord
100
AcDbLayerTableRecord
  2
轮廓线.
 70
     0
 62
   255
  6
Continuous
370
    30
390
F
347
EF
1001
AcAecLayerStandard
1000

1000

  0
LAYER
  5
A142
330
2
100
AcDbSymbolTableRecord
100
AcDbLayerTableRecord
  2
图层1
 70
     0
 62
     3
  6
Continuous
370
    -3
390
F
347
EF
1001
AcAecLayerStandard
1000

1000

  0
LAYER
  5
A143
330
2
100
AcDbSymbolTableRecord
100
AcDbLayerTableRecord
  2
图层2
 70
     0
 62
     1
  6
Continuous
370
    -3
390
F
347
EF
1001
AcAecLayerStandard
1000

1000

  0
LAYER
  5
E2BA
330
2
100
AcDbSymbolTableRecord
100
AcDbLayerTableRecord
  2
图层 1
 70
     0
 62
     7
  6
Continuous
370
    -3
390
F
347
EF
  0
ENDTAB
  0
TABLE
  2
STYLE
  5
3
330
0
100
AcDbSymbolTable
 70
     3
  0
STYLE
  5
11
330
3
100
AcDbSymbolTableRecord
100
AcDbTextStyleTableRecord
  2
Standard
 70
     0
 40
0.0
 41
1.0
 50
0.0
 71
     0
 42
2.5
  3
SimSun.ttf
  4

1001
ACAD
1000
SimSun
1071
    34306
  0
STYLE
  5
12F
330
3
100
AcDbSymbolTableRecord
100
AcDbTextStyleTableRecord
  2
Arial
 70
     0
 40
0.0
 41
1.0
 50
0.0
 71
     0
 42
2.5
  3
arial.ttf
  4

1001
ACAD
1000
Arial
1071
       34
  0
STYLE
  5
E2BB
330
3
100
AcDbSymbolTableRecord
100
AcDbTextStyleTableRecord
  2
TT宋体
 70
     0
 40
0.0
 41
1.0
 50
0.0
 71
     0
 42
2.5
  3
SimSun.ttf
  4

1001
ACAD
1000
SimSun
1071
    34306
  0
ENDTAB
  0
TABLE
  2
VIEW
  5
6
330
0
100
AcDbSymbolTable
 70
     0
  0
ENDTAB
  0
TABLE
  2
UCS
  5
7
330
0
100
AcDbSymbolTable
 70
     0
  0
ENDTAB
  0
TABLE
  2
APPID
  5
9
330
0
100
AcDbSymbolTable
 70
     5
  0
APPID
  5
12
330
9
100
AcDbSymbolTableRecord
100
AcDbRegAppTableRecord
  2
ACAD
 70
     0
  0
APPID
  5
9E
330
9
100
AcDbSymbolTableRecord
100
AcDbRegAppTableRecord
  2
ACAD_PSEXT
 70
     0
  0
APPID
  5
1C3
330
9
100
AcDbSymbolTableRecord
100
AcDbRegAppTableRecord
  2
AcAecLayerStandard
 70
     0
  0
APPID
  5
1DD
330
9
100
AcDbSymbolTableRecord
100
AcDbRegAppTableRecord
  2
ACAD_EXEMPT_FROM_CAD_STANDARDS
 70
     0
  0
APPID
  5
BB6
330
9
100
AcDbSymbolTableRecord
100
AcDbRegAppTableRecord
  2
DCO15
 70
     0
  0
ENDTAB
  0
TABLE
  2
DIMSTYLE
  5
A
330
0
100
AcDbSymbolTable
 70
     3
100
AcDbDimStyleTable
 71
     2
340
27
340
BB5
  0
DIMSTYLE
105
27
102
{ACAD_REACTORS
330
E0A5
330
E0A8
330
E0AB
330
E0AE
330
E0B1
330
E0B5
330
E0B8
330
E0BB
330
E0BE
102
}
330
A
100
AcDbSymbolTableRecord
100
AcDbDimStyleTableRecord
  2
宋体
 70
     0
 40
0.7
 41
20.0
 42
0.0
 43
3.75
 44
10.0
 73
     0
 78
     8
140
30.0
141
0.0
143
0.03937007874016
147
20.0
171
     3
172
     1
271
     0
272
     0
274
     3
279
     1
284
     8
340
11
  0
DIMSTYLE
105
BB5
330
A
100
AcDbSymbolTableRecord
100
AcDbDimStyleTableRecord
  2
STANDARD
 70
     0
 41
3.5
 47
0.01
 48
0.01
 71
     1
 73
     0
 74
     0
 77
     1
 78
     8
140
3.5
271
     2
272
     2
284
     8
340
11
  0
DIMSTYLE
105
A144
330
A
100
AcDbSymbolTableRecord
100
AcDbDimStyleTableRecord
  2
ISO-25
 70
     0
 40
9.0
 41
1.5
 42
0.625
 43
3.75
 44
0.5
 73
     0
 77
     1
 78
     8
140
2.5
141
2.5
143
0.03937007874016
147
0.3
171
     3
172
     1
271
     0
272
     0
274
     3
283
     0
284
     8
340
11
  0
ENDTAB
  0
TABLE
  2
BLOCK_RECORD
  5
1
330
0
100
AcDbSymbolTable
 70
    42
  0
BLOCK_RECORD
  5
1F
102
{ACAD_XDICTIONARY
360
1E9
102
}
330
1
100
AcDbSymbolTableRecord
100
AcDbBlockTableRecord
  2
*Model_Space
340
22
 70
     0
280
     1
281
     0
  0
BLOCK_RECORD
  5
D2
330
1
100
AcDbSymbolTableRecord
100
AcDbBlockTableRecord
  2
*Paper_Space
340
D3
 70
     0
280
     1
281
     0
  0
BLOCK_RECORD
  5
D6
330
1
100
AcDbSymbolTableRecord
100
AcDbBlockTableRecord
  2
*Paper_Space0
340
D7
 70
     0
280
     1
281
     0
  0
BLOCK_RECORD
  5
E14D
330
1
100
AcDbSymbolTableRecord
100
AcDbBlockTableRecord
  2
*D20
340
0
 70
     0
280
     1
281
     0
  0
BLOCK_RECORD
  5
E159
330
1
100
AcDbSymbolTableRecord
100
AcDbBlockTableRecord
  2
*D21
340
0
 70
     0
280
     1
281
     0
  0
BLOCK_RECORD
  5
E165
330
1
100
AcDbSymbolTableRecord
100
AcDbBlockTableRecord
  2
*D22
340
0
 70
     0
280
     1
281
     0
  0
BLOCK_RECORD
  5
E171
330
1
100
AcDbSymbolTableRecord
100
AcDbBlockTableRecord
  2
*D23
340
0
 70
     0
280
     1
281
     0
  0
BLOCK_RECORD
  5
E17D
330
1
100
AcDbSymbolTableRecord
100
AcDbBlockTableRecord
  2
*D24
340
0
 70
     0
280
     1
281
     0
  0
BLOCK_RECORD
  5
E189
330
1
100
AcDbSymbolTableRecord
100
AcDbBlockTableRecord
  2
*D25
340
0
 70
     0
280
     1
281
     0
  0
BLOCK_RECORD
  5
E199
330
1
100
AcDbSymbolTableRecord
100
AcDbBlockTableRecord
  2
*D26
340
0
 70
     0
280
     1
281
     0
  0
BLOCK_RECORD
  5
E1A9
330
1
100
AcDbSymbolTableRecord
100
AcDbBlockTableRecord
  2
*D27
340
0
 70
     0
280
     1
281
     0
  0
BLOCK_RECORD
  5
E1B8
330
1
100
AcDbSymbolTableRecord
100
AcDbBlockTableRecord
  2
*D28
340
0
 70
     0
280
     1
281
     0
  0
BLOCK_RECORD
  5
E1E2
330
1
100
AcDbSymbolTableRecord
100
AcDbBlockTableRecord
  2
324
340
0
310
2800000020000000200000000100080000000000000400000000000000000000000000000000000000000000000080000080000000808000800000008000800080800000C0C0C000C0DCC000F0CAA6000020400000206000002080000020A0000020C0000020E00000400000004020000040400000406000004080000040A0
310
000040C0000040E00000600000006020000060400000606000006080000060A0000060C0000060E00000800000008020000080400000806000008080000080A0000080C0000080E00000A0000000A0200000A0400000A0600000A0800000A0A00000A0C00000A0E00000C0000000C0200000C0400000C0600000C0800000C0
310
A00000C0C00000C0E00000E0000000E0200000E0400000E0600000E0800000E0A00000E0C00000E0E00040000000400020004000400040006000400080004000A0004000C0004000E00040200000402020004020400040206000402080004020A0004020C0004020E000404000004040200040404000404060004040800040
310
40A0004040C0004040E00040600000406020004060400040606000406080004060A0004060C0004060E00040800000408020004080400040806000408080004080A0004080C0004080E00040A0000040A0200040A0400040A0600040A0800040A0A00040A0C00040A0E00040C0000040C0200040C0400040C0600040C08000
310
40C0A00040C0C00040C0E00040E0000040E0200040E0400040E0600040E0800040E0A00040E0C00040E0E00080000000800020008000400080006000800080008000A0008000C0008000E00080200000802020008020400080206000802080008020A0008020C0008020E00080400000804020008040400080406000804080
310
008040A0008040C0008040E00080600000806020008060400080606000806080008060A0008060C0008060E00080800000808020008080400080806000808080008080A0008080C0008080E00080A0000080A0200080A0400080A0600080A0800080A0A00080A0C00080A0E00080C0000080C0200080C0400080C0600080C0
310
800080C0A00080C0C00080C0E00080E0000080E0200080E0400080E0600080E0800080E0A00080E0C00080E0E000C0000000C0002000C0004000C0006000C0008000C000A000C000C000C000E000C0200000C0202000C0204000C0206000C0208000C020A000C020C000C020E000C0400000C0402000C0404000C0406000C0
310
408000C040A000C040C000C040E000C0600000C0602000C0604000C0606000C0608000C060A000C060C000C060E000C0800000C0802000C0804000C0806000C0808000C080A000C080C000C080E000C0A00000C0A02000C0A04000C0A06000C0A08000C0A0A000C0A0C000C0A0E000C0C00000C0C02000C0C04000C0C06000
310
C0C08000C0C0A000F0FBFF00A4A0A000808080000000FF0000FF000000FFFF00FF000000FF00FF00FFFF0000FFFFFF0000000000000000000000000000000000000000000000000000000000000000000000000000000000000000000000000000000000000000000000000000000000000000000000000000000000000000
310
00000000000000000000000000000000000000000000000000000000000000000000000000000000000000000000000000000000000000000000000000000000000000000000000000000000000000000000000000000000000000000000000000000000000000000000000000000000000000000000000000000000000000
310
00000000000000000000000000000000000000000000000000000000000000000000000000000000000000000000000000000000000000000000000000000000000000000000000000000000000000000000000000000000000000000000000000000000000000000000000000000000000000000000000000000000000000
310
000000000000000000000000000000000000000000000000000000000000000000000000000000000000000000000000000000000000000000000000000000000000000000000000000000000000000000000000FDFDFDFDFDFDFDFDFDFDFDFDFDFDFDFDFDFDFDFDFDFDFDFDFDFDFDFD0000000000FDFDFDFDFDFDFDFDFDFD
310
FDFDFDFDFDFDFDFDFDFDFDFDFDFDFDFDFD00000000000000000000FDFDFDFDFDFDFDFDFDFDFDFDFDFDFDFD00000000000000000000000000000000FFFFFFFFFFFFFFFFFFFFFFFFFFFFFFFF0000000000000000000000000000000000000000FDFDFDFDFDFDFDFD000000000000000000000000000000000000000000000000
310
FDFDFDFDFDFDFDFDFD00000000000000000000000000000000000000000000000000000000000000000000000000000000000000000000000000000000000000000000000000000000000000000000000000000000000000000000000000000000000000000000000000000000000000000000000000000000000000000000
310
00000000000000000000000000000000000000000000000000000000000000000000000000000000000000000000000000000000000000000000000000000000000000000000000000000000000000000000000000000000000000000000000000000000000000000000000000000000000000000000000000000000000000
310
00000000000000000000000000000000000000000000000000000000000000000000000000000000000000000000000000000000000000000000000000000000000000000000000000000000000000000000000000000000000000000000000000000000000000000000000000000000000000000000000000000000000000
310
0000000000000000000000000000000000000000000000000000000000000000000000000000000000000000000000000000000000000000
 70
     4
280
     1
281
     0
  0
BLOCK_RECORD
  5
E1E9
330
1
100
AcDbSymbolTableRecord
100
AcDbBlockTableRecord
  2
DDD
340
0
310
2800000020000000200000000100080000000000000400000000000000000000000000000000000000000000000080000080000000808000800000008000800080800000C0C0C000C0DCC000F0CAA6000020400000206000002080000020A0000020C0000020E00000400000004020000040400000406000004080000040A0
310
000040C0000040E00000600000006020000060400000606000006080000060A0000060C0000060E00000800000008020000080400000806000008080000080A0000080C0000080E00000A0000000A0200000A0400000A0600000A0800000A0A00000A0C00000A0E00000C0000000C0200000C0400000C0600000C0800000C0
310
A00000C0C00000C0E00000E0000000E0200000E0400000E0600000E0800000E0A00000E0C00000E0E00040000000400020004000400040006000400080004000A0004000C0004000E00040200000402020004020400040206000402080004020A0004020C0004020E000404000004040200040404000404060004040800040
310
40A0004040C0004040E00040600000406020004060400040606000406080004060A0004060C0004060E00040800000408020004080400040806000408080004080A0004080C0004080E00040A0000040A0200040A0400040A0600040A0800040A0A00040A0C00040A0E00040C0000040C0200040C0400040C0600040C08000
310
40C0A00040C0C00040C0E00040E0000040E0200040E0400040E0600040E0800040E0A00040E0C00040E0E00080000000800020008000400080006000800080008000A0008000C0008000E00080200000802020008020400080206000802080008020A0008020C0008020E00080400000804020008040400080406000804080
310
008040A0008040C0008040E00080600000806020008060400080606000806080008060A0008060C0008060E00080800000808020008080400080806000808080008080A0008080C0008080E00080A0000080A0200080A0400080A0600080A0800080A0A00080A0C00080A0E00080C0000080C0200080C0400080C0600080C0
310
800080C0A00080C0C00080C0E00080E0000080E0200080E0400080E0600080E0800080E0A00080E0C00080E0E000C0000000C0002000C0004000C0006000C0008000C000A000C000C000C000E000C0200000C0202000C0204000C0206000C0208000C020A000C020C000C020E000C0400000C0402000C0404000C0406000C0
310
408000C040A000C040C000C040E000C0600000C0602000C0604000C0606000C0608000C060A000C060C000C060E000C0800000C0802000C0804000C0806000C0808000C080A000C080C000C080E000C0A00000C0A02000C0A04000C0A06000C0A08000C0A0A000C0A0C000C0A0E000C0C00000C0C02000C0C04000C0C06000
310
C0C08000C0C0A000F0FBFF00A4A0A000808080000000FF0000FF000000FFFF00FF000000FF00FF00FFFF0000FFFFFF0000000000000000000000000000000000000000000000000000000000000000000000000000000000000000000000000000000000000000000000000000000000000000000000000000000000000000
310
00000000000000000000000000000000000000000000000000000000000000000000000000000000000000000000000000000000000000000000000000000000000000000000000000000000000000000000000000000000000000000000000000000000000000000000000000000000000000000000000000000000000000
310
00000000000000000000000000000000000000000000000000000000000000000000000000000000000000000000000000000000000000000000000000000000000000000000000000000000000000000000000000000000000000000000000000000000000000000000000000000000000000000000FFFF00000000000000
310
000000000000000000000000000000000000000000FFFFFFFFFFFFFF000000000000000000000000000000000000000000000000FFFFFF0000FFFF00FFFFFF000000000000000000000000000000000000000000FFFFFFFFFFFF00FFFF0000FFFFFF000000000000000000000000000000000000000000FF0000FFFFFFFF00
310
000000FFFF0000000000000000000000000000000000000000FFFFFF000000FFFF00000000FFFFFF0000000000000000000000000000000000000000FFFFFFFF00FFFF0000000000FFFFFF000000000000000000000000000000000000FF0000FFFFFFFFFFFFFF00FF0000FFFFFF00000000000000000000000000000000FF
310
FFFF0000FFFF0000FFFFFFFFFF00FFFFFFFF00000000000000000000000000000000FFFFFF00FFFFFFFFFF0000FFFFFFFF00FFFF0000000000000000000000000000000000FFFFFFFF00FFFFFFFFFF0000FFFF00000000000000000000000000000000000000000000000000000000FFFF0000000000000000000000000000
310
00000000000000000000000000000000000000000000000000000000000000000000000000000000000000000000000000000000000000000000000000000000000000000000000000000000000000000000000000000000000000000000000000000000000000000000000000000000000000000000000000000000000000
310
00000000000000000000000000000000000000000000000000000000000000000000000000000000000000000000000000000000000000000000000000000000000000000000000000000000000000000000000000000000000000000000000000000000000000000000000000000000000000000000000000000000000000
310
0000000000000000000000000000000000000000000000000000000000000000000000000000000000000000000000000000000000000000
 70
     4
280
     1
281
     0
  0
BLOCK_RECORD
  5
E221
330
1
100
AcDbSymbolTableRecord
100
AcDbBlockTableRecord
  2
SFA
340
0
310
2800000020000000200000000100080000000000000400000000000000000000000000000000000000000000000080000080000000808000800000008000800080800000C0C0C000C0DCC000F0CAA6000020400000206000002080000020A0000020C0000020E00000400000004020000040400000406000004080000040A0
310
000040C0000040E00000600000006020000060400000606000006080000060A0000060C0000060E00000800000008020000080400000806000008080000080A0000080C0000080E00000A0000000A0200000A0400000A0600000A0800000A0A00000A0C00000A0E00000C0000000C0200000C0400000C0600000C0800000C0
310
A00000C0C00000C0E00000E0000000E0200000E0400000E0600000E0800000E0A00000E0C00000E0E00040000000400020004000400040006000400080004000A0004000C0004000E00040200000402020004020400040206000402080004020A0004020C0004020E000404000004040200040404000404060004040800040
310
40A0004040C0004040E00040600000406020004060400040606000406080004060A0004060C0004060E00040800000408020004080400040806000408080004080A0004080C0004080E00040A0000040A0200040A0400040A0600040A0800040A0A00040A0C00040A0E00040C0000040C0200040C0400040C0600040C08000
310
40C0A00040C0C00040C0E00040E0000040E0200040E0400040E0600040E0800040E0A00040E0C00040E0E00080000000800020008000400080006000800080008000A0008000C0008000E00080200000802020008020400080206000802080008020A0008020C0008020E00080400000804020008040400080406000804080
310
008040A0008040C0008040E00080600000806020008060400080606000806080008060A0008060C0008060E00080800000808020008080400080806000808080008080A0008080C0008080E00080A0000080A0200080A0400080A0600080A0800080A0A00080A0C00080A0E00080C0000080C0200080C0400080C0600080C0
310
800080C0A00080C0C00080C0E00080E0000080E0200080E0400080E0600080E0800080E0A00080E0C00080E0E000C0000000C0002000C0004000C0006000C0008000C000A000C000C000C000E000C0200000C0202000C0204000C0206000C0208000C020A000C020C000C020E000C0400000C0402000C0404000C0406000C0
310
408000C040A000C040C000C040E000C0600000C0602000C0604000C0606000C0608000C060A000C060C000C060E000C0800000C0802000C0804000C0806000C0808000C080A000C080C000C080E000C0A00000C0A02000C0A04000C0A06000C0A08000C0A0A000C0A0C000C0A0E000C0C00000C0C02000C0C04000C0C06000
310
C0C08000C0C0A000F0FBFF00A4A0A000808080000000FF0000FF000000FFFF00FF000000FF00FF00FFFF0000FFFFFF0000000000000000000000000000000000000000000000000000000000000000000000000000000000000000000000000000000000000000000000000000000000000000000000000000000000000000
310
00000000000000000000000000000000000000000000000000000000000000000000000000000000000000000000000000000000000000000000000000000000000000000000000000000000000000000000000000000000000000000000000000000000000000000000000000000000000000000000000000000000000000
310
00000000000000000000000000000000000000000000000000000000000000000000000000000000000000000000000000000000000000000000000000000000000000000000000000000000000000000000000000FFFFFF000000000000000000000000000000000000000000000000000000FFFF00FF00FFFFFF00000000
310
0000000000000000000000000000000000000000FF0000FF00000000FFFFFFFF0000000000000000000000000000000000000000FF0000FF0000000000000000FFFFFF0000000000000000000000000000000000FF00FFFFFF000000000000FFFF0000FFFFFF0000000000000000000000000000FFFF000000FFFFFFFF0000
310
FF00FFFFFFFF00FFFFFF00000000000000000000000000FFFF0000000000FFFFFFFF000000FFFFFFFF00FFFFFFFF0000000000000000000000FFFFFF0000FFFFFF00FFFFFF000000FFFFFF000000FFFFFF0000000000000000000000FFFF000000FFFFFF00FFFFFF00FFFF000000000000FFFF000000000000000000000000
310
0000000000FFFF0000FFFFFFFF000000000000FF00000000000000000000000000000000000000FFFFFFFF0000FFFF00000000FF0000000000000000000000000000000000000000FFFF0000000000FFFFFF00FF00000000000000000000000000000000000000000000FFFFFFFF00000000FFFF0000000000000000000000
310
000000000000000000000000000000FFFFFFFF000000000000000000000000000000000000000000000000000000000000000000000000000000000000000000000000000000000000000000000000000000000000000000000000000000000000000000000000000000000000000000000000000000000000000000000000
310
00000000000000000000000000000000000000000000000000000000000000000000000000000000000000000000000000000000000000000000000000000000000000000000000000000000000000000000000000000000000000000000000000000000000000000000000000000000000000000000000000000000000000
310
0000000000000000000000000000000000000000000000000000000000000000000000000000000000000000000000000000000000000000
 70
     4
280
     1
281
     0
  0
ENDTAB
  0
ENDSEC
  0
SECTION
  2
BLOCKS
  0
BLOCK
  5
20
330
1F
100
AcDbEntity
  8
0
100
AcDbBlockBegin
  2
*Model_Space
 70
     0
 10
0.0
 20
0.0
 30
0.0
  3
*Model_Space
  1

  0
ENDBLK
  5
21
330
1F
100
AcDbEntity
  8
0
100
AcDbBlockEnd
  0
BLOCK
  5
D4
330
D2
100
AcDbEntity
 67
     1
  8
0
100
AcDbBlockBegin
  2
*Paper_Space
 70
     0
 10
0.0
 20
0.0
 30
0.0
  3
*Paper_Space
  1

  0
ENDBLK
  5
D5
330
D2
100
AcDbEntity
 67
     1
  8
0
100
AcDbBlockEnd
  0
BLOCK
  5
D8
330
D6
100
AcDbEntity
  8
0
100
AcDbBlockBegin
  2
*Paper_Space0
 70
     0
 10
0.0
 20
0.0
 30
0.0
  3
*Paper_Space0
  1

  0
ENDBLK
  5
D9
330
D6
100
AcDbEntity
  8
0
100
AcDbBlockEnd
  0
BLOCK
  5
E157
330
E14D
100
AcDbEntity
  8
0
100
AcDbBlockBegin
  2
*D20
 70
     1
 10
0.0
 20
0.0
 30
0.0
  3
*D20
  1

  0
LINE
  5
E1CF
330
E14D
100
AcDbEntity
  8
尺寸标注层
 62
     0
370
    -2
100
AcDbLine
 10
16761.70782460969
 20
-6640.995313879727
 30
0.0
 11
16733.70782460969
 21
-6640.995313879727
 31
0.0
  0
LINE
  5
E1D0
330
E14D
100
AcDbEntity
  8
尺寸标注层
 62
     0
370
    -2
100
AcDbLine
 10
16483.97073872478
 20
-6146.301356473415
 30
0.0
 11
16471.35223900989
 21
-6121.305887585127
 31
0.0
  0
LINE
  5
E1D1
330
E14D
100
AcDbEntity
  8
尺寸标注层
 62
     0
370
    -2
100
AcDbLine
 10
16733.70782460969
 20
-6640.995313879727
 30
0.0
 11
16675.86777859358
 21
-6526.422337427771
 31
0.0
  0
MTEXT
  5
E1D2
330
E14D
100
AcDbEntity
  8
尺寸标注层
 62
     0
100
AcDbMText
 10
16826.92449127636
 20
-6640.995313879727
 30
0.0
 40
21.0
 41
0.0
 46
0.0
 71
     5
 72
     5
  1
\A1;%%c370%%p6
 73
     1
 44
1.0
  0
LINE
  5
E1D3
330
E14D
100
AcDbEntity
  8
尺寸标注层
 62
     0
370
    -2
100
AcDbLine
 10
16496.58923843967
 20
-6171.296825361704
 30
0.0
 11
16663.24927887869
 21
-6501.426868539482
 31
0.0
  0
SOLID
  5
E1D4
330
E14D
100
AcDbEntity
  8
尺寸标注层
 62
     0
100
AcDbTrace
 10
16479.8048272434
 20
-6148.40443975923
 30
0.0
 11
16488.13665020616
 21
-6144.198273187601
 31
0.0
 12
16496.58923843967
 22
-6171.296825361704
 32
0.0
 13
16496.58923843967
 23
-6171.296825361704
 33
0.0
  0
SOLID
  5
E1D5
330
E14D
100
AcDbEntity
  8
尺寸标注层
 62
     0
100
AcDbTrace
 10
16680.03369007496
 20
-6524.319254141956
 30
0.0
 11
16671.7018671122
 21
-6528.525420713584
 31
0.0
 12
16663.24927887869
 22
-6501.426868539482
 32
0.0
 13
16663.24927887869
 23
-6501.426868539482
 33
0.0
  0
POINT
  5
E1D6
330
E14D
100
AcDbEntity
  8
Defpoints
 62
     0
100
AcDbPoint
 10
16663.24927887869
 20
-6501.426868539482
 30
0.0
  0
POINT
  5
E1D7
330
E14D
100
AcDbEntity
  8
Defpoints
 62
     0
100
AcDbPoint
 10
16496.58923843967
 20
-6171.296825361704
 30
0.0
  0
ENDBLK
  5
E158
330
E14D
100
AcDbEntity
  8
0
100
AcDbBlockEnd
  0
BLOCK
  5
E163
330
E159
100
AcDbEntity
  8
0
100
AcDbBlockBegin
  2
*D21
 70
     1
 10
0.0
 20
0.0
 30
0.0
  3
*D21
  1

  0
LINE
  5
E15A
330
E159
100
AcDbEntity
  8
尺寸标注层
 62
     0
370
    -2
100
AcDbLine
 10
16870.99191743847
 20
-6592.128888612129
 30
0.0
 11
16842.99191743847
 21
-6592.128888612129
 31
0.0
  0
LINE
  5
E15B
330
E159
100
AcDbEntity
  8
尺寸标注层
 62
     0
370
    -2
100
AcDbLine
 10
16398.52021855685
 20
-6160.000319825345
 30
0.0
 11
16378.44443546252
 21
-6140.482048048636
 31
0.0
  0
LINE
  5
E15C
330
E159
100
AcDbEntity
  8
尺寸标注层
 62
     0
370
    -2
100
AcDbLine
 10
16842.99191743847
 20
-6592.128888612129
 30
0.0
 11
16761.31829876151
 21
-6512.723374075847
 31
0.0
  0
MTEXT
  5
E15D
330
E159
100
AcDbEntity
  8
尺寸标注层
 62
     0
100
AcDbMText
 10
16936.20858410514
 20
-6592.128888612129
 30
0.0
 40
21.0
 41
0.0
 46
0.0
 71
     5
 72
     5
  1
\A1;%%c450%%p6
 73
     1
 44
1.0
  0
LINE
  5
E15E
330
E159
100
AcDbEntity
  8
尺寸标注层
 62
     0
370
    -2
100
AcDbLine
 10
16418.59600165118
 20
-6179.518591602053
 30
0.0
 11
16741.24251566718
 21
-6493.205102299139
 31
0.0
  0
SOLID
  5
E15F
330
E159
100
AcDbEntity
  8
尺寸标注层
 62
     0
100
AcDbTrace
 10
16395.26717326073
 20
-6163.3462836744
 30
0.0
 11
16401.77326385297
 21
-6156.654355976289
 31
0.0
 12
16418.59600165118
 22
-6179.518591602053
 32
0.0
 13
16418.59600165118
 23
-6179.518591602053
 33
0.0
  0
SOLID
  5
E160
330
E159
100
AcDbEntity
  8
尺寸标注层
 62
     0
100
AcDbTrace
 10
16764.57134405763
 20
-6509.377410226791
 30
0.0
 11
16758.06525346539
 21
-6516.069337924901
 31
0.0
 12
16741.24251566718
 22
-6493.205102299139
 32
0.0
 13
16741.24251566718
 23
-6493.205102299139
 33
0.0
  0
POINT
  5
E161
330
E159
100
AcDbEntity
  8
Defpoints
 62
     0
100
AcDbPoint
 10
16741.24251566718
 20
-6493.205102299139
 30
0.0
  0
POINT
  5
E162
330
E159
100
AcDbEntity
  8
Defpoints
 62
     0
100
AcDbPoint
 10
16418.59600165118
 20
-6179.518591602053
 30
0.0
  0
ENDBLK
  5
E164
330
E159
100
AcDbEntity
  8
0
100
AcDbBlockEnd
  0
BLOCK
  5
E16F
330
E165
100
AcDbEntity
  8
0
100
AcDbBlockBegin
  2
*D22
 70
     1
 10
0.0
 20
0.0
 30
0.0
  3
*D22
  1

  0
LINE
  5
E1C6
330
E165
100
AcDbEntity
  8
尺寸标注层
 62
     0
370
    -2
100
AcDbLine
 10
16877.04176247593
 20
-6139.876668066765
 30
0.0
 11
16849.04176247593
 21
-6139.876668066765
 31
0.0
  0
LINE
  5
E1C7
330
E165
100
AcDbEntity
  8
尺寸标注层
 62
     0
370
    -2
100
AcDbLine
 10
16529.84494708384
 20
-6372.920885781716
 30
0.0
 11
16507.23074185626
 21
-6389.431419447385
 31
0.0
  0
LINE
  5
E1C8
330
E165
100
AcDbEntity
  8
尺寸标注层
 62
     0
370
    -2
100
AcDbLine
 10
16849.04176247593
 20
-6139.876668066765
 30
0.0
 11
16629.99357023452
 21
-6299.802808119469
 31
0.0
  0
MTEXT
  5
E1C9
330
E165
100
AcDbEntity
  8
尺寸标注层
 62
     0
100
AcDbMText
 10
16934.61676247593
 20
-6139.876668066765
 30
0.0
 40
21.0
 41
0.0
 46
0.0
 71
     5
 72
     5
  1
\A1;%%c68%%p2
 73
     1
 44
1.0
  0
LINE
  5
E1CA
330
E165
100
AcDbEntity
  8
尺寸标注层
 62
     0
370
    -2
100
AcDbLine
 10
16552.45915231141
 20
-6356.410352116046
 30
0.0
 11
16607.37936500695
 21
-6316.313341785139
 31
0.0
  0
SOLID
  5
E1CB
330
E165
100
AcDbEntity
  8
尺寸标注层
 62
     0
100
AcDbTrace
 10
16532.59670269478
 20
-6376.689919986311
 30
0.0
 11
16527.09319147289
 21
-6369.151851577121
 31
0.0
 12
16552.45915231141
 22
-6356.410352116046
 32
0.0
 13
16552.45915231141
 23
-6356.410352116046
 33
0.0
  0
SOLID
  5
E1CC
330
E165
100
AcDbEntity
  8
尺寸标注层
 62
     0
100
AcDbTrace
 10
16627.24181462358
 20
-6296.033773914874
 30
0.0
 11
16632.74532584547
 21
-6303.571842324065
 31
0.0
 12
16607.37936500695
 22
-6316.313341785139
 32
0.0
 13
16607.37936500695
 23
-6316.313341785139
 33
0.0
  0
POINT
  5
E1CD
330
E165
100
AcDbEntity
  8
Defpoints
 62
     0
100
AcDbPoint
 10
16607.37936500695
 20
-6316.313341785139
 30
0.0
  0
POINT
  5
E1CE
330
E165
100
AcDbEntity
  8
Defpoints
 62
     0
100
AcDbPoint
 10
16552.45915231141
 20
-6356.410352116046
 30
0.0
  0
ENDBLK
  5
E170
330
E165
100
AcDbEntity
  8
0
100
AcDbBlockEnd
  0
BLOCK
  5
E17B
330
E171
100
AcDbEntity
  8
0
100
AcDbBlockBegin
  2
*D23
 70
     1
 10
0.0
 20
0.0
 30
0.0
  3
*D23
  1

  0
LINE
  5
E172
330
E171
100
AcDbEntity
  8
尺寸标注层
 62
     0
370
    -2
100
AcDbLine
 10
16870.99191743846
 20
-6235.902645045272
 30
0.0
 11
16842.99191743846
 21
-6235.902645045272
 31
0.0
  0
LINE
  5
E173
330
E171
100
AcDbEntity
  8
尺寸标注层
 62
     0
370
    -2
100
AcDbLine
 10
16532.97557434243
 20
-6354.288168457507
 30
0.0
 11
16506.81789949926
 21
-6364.276964521061
 31
0.0
  0
LINE
  5
E174
330
E171
100
AcDbEntity
  8
尺寸标注层
 62
     0
370
    -2
100
AcDbLine
 10
16842.99191743846
 20
-6235.902645045272
 30
0.0
 11
16626.86294297593
 21
-6318.435525443678
 31
0.0
  0
MTEXT
  5
E175
330
E171
100
AcDbEntity
  8
尺寸标注层
 62
     0
100
AcDbMText
 10
16958.43358410513
 20
-6235.902645045272
 30
0.0
 40
21.0
 41
0.0
 46
0.0
 71
     5
 72
     5
  1
\A1;%%c44.5%%p0.5
 73
     1
 44
1.0
  0
LINE
  5
E176
330
E171
100
AcDbEntity
  8
尺寸标注层
 62
     0
370
    -2
100
AcDbLine
 10
16559.13324918559
 20
-6344.299372393953
 30
0.0
 11
16600.70526813276
 21
-6328.424321507233
 31
0.0
  0
SOLID
  5
E177
330
E171
100
AcDbEntity
  8
尺寸标注层
 62
     0
100
AcDbTrace
 10
16534.64037368635
 20
-6358.647780931367
 30
0.0
 11
16531.3107749985
 21
-6349.928555983646
 31
0.0
 12
16559.13324918559
 22
-6344.299372393953
 32
0.0
 13
16559.13324918559
 23
-6344.299372393953
 33
0.0
  0
SOLID
  5
E178
330
E171
100
AcDbEntity
  8
尺寸标注层
 62
     0
100
AcDbTrace
 10
16625.198143632
 20
-6314.075912969818
 30
0.0
 11
16628.52774231986
 21
-6322.795137917539
 31
0.0
 12
16600.70526813276
 22
-6328.424321507233
 32
0.0
 13
16600.70526813276
 23
-6328.424321507233
 33
0.0
  0
POINT
  5
E179
330
E171
100
AcDbEntity
  8
Defpoints
 62
     0
100
AcDbPoint
 10
16600.70526813276
 20
-6328.424321507233
 30
0.0
  0
POINT
  5
E17A
330
E171
100
AcDbEntity
  8
Defpoints
 62
     0
100
AcDbPoint
 10
16559.13324918559
 20
-6344.299372393953
 30
0.0
  0
ENDBLK
  5
E17C
330
E171
100
AcDbEntity
  8
0
100
AcDbBlockEnd
  0
BLOCK
  5
E187
330
E17D
100
AcDbEntity
  8
0
100
AcDbBlockBegin
  2
*D24
 70
     1
 10
0.0
 20
0.0
 30
0.0
  3
*D24
  1

  0
LINE
  5
E17E
330
E17D
100
AcDbEntity
  8
尺寸标注层
 62
     0
370
    -2
100
AcDbLine
 10
16666.26849298223
 20
-6724.219827239882
 30
0.0
 11
16638.26849298223
 21
-6724.219827239882
 31
0.0
  0
LINE
  5
E17F
330
E17D
100
AcDbEntity
  8
尺寸标注层
 62
     0
370
    -2
100
AcDbLine
 10
16561.80093657938
 20
-6872.35576517456
 30
0.0
 11
16548.95756902913
 21
-6897.236438597307
 31
0.0
  0
LINE
  5
E180
330
E17D
100
AcDbEntity
  8
尺寸标注层
 62
     0
370
    -2
100
AcDbLine
 10
16638.26849298223
 20
-6724.219827239882
 30
0.0
 11
16598.03758073898
 21
-6802.156722303244
 31
0.0
  0
MTEXT
  5
E181
330
E17D
100
AcDbEntity
  8
尺寸标注层
 62
     0
100
AcDbMText
 10
16738.77682631556
 20
-6724.219827239882
 30
0.0
 40
21.0
 41
0.0
 46
0.0
 71
     5
 72
     5
  1
\A1;%%c23%%p0.5
 73
     1
 44
1.0
  0
LINE
  5
E182
330
E17D
100
AcDbEntity
  8
尺寸标注层
 62
     0
370
    -2
100
AcDbLine
 10
16574.64430412962
 20
-6847.475091751814
 30
0.0
 11
16585.19421318874
 21
-6827.037395725991
 31
0.0
  0
SOLID
  5
E183
330
E17D
100
AcDbEntity
  8
尺寸标注层
 62
     0
100
AcDbTrace
 10
16565.94771548317
 20
-6874.496326432934
 30
0.0
 11
16557.65415767558
 21
-6870.215203916187
 31
0.0
 12
16574.64430412962
 22
-6847.475091751814
 32
0.0
 13
16574.64430412962
 23
-6847.475091751814
 33
0.0
  0
SOLID
  5
E184
330
E17D
100
AcDbEntity
  8
尺寸标注层
 62
     0
100
AcDbTrace
 10
16593.89080183519
 20
-6800.01616104487
 30
0.0
 11
16602.18435964278
 21
-6804.297283561618
 31
0.0
 12
16585.19421318874
 22
-6827.037395725991
 32
0.0
 13
16585.19421318874
 23
-6827.037395725991
 33
0.0
  0
POINT
  5
E185
330
E17D
100
AcDbEntity
  8
Defpoints
 62
     0
100
AcDbPoint
 10
16585.19421318874
 20
-6827.037395725991
 30
0.0
  0
POINT
  5
E186
330
E17D
100
AcDbEntity
  8
Defpoints
 62
     0
100
AcDbPoint
 10
16574.64430412962
 20
-6847.475091751814
 30
0.0
  0
ENDBLK
  5
E188
330
E17D
100
AcDbEntity
  8
0
100
AcDbBlockEnd
  0
BLOCK
  5
E197
330
E189
100
AcDbEntity
  8
0
100
AcDbBlockBegin
  2
*D25
 70
     1
 10
0.0
 20
0.0
 30
0.0
  3
*D25
  1

  0
LINE
  5
E18A
330
E189
100
AcDbEntity
  8
尺寸标注层
 62
     0
370
    -2
100
AcDbLine
 10
16543.16866455064
 20
-6837.256243738902
 30
0.0
 11
16515.07393176839
 21
-6837.256243738902
 31
0.0
  0
LINE
  5
E18B
330
E189
100
AcDbEntity
  8
尺寸标注层
 62
     0
370
    -2
100
AcDbLine
 10
16543.16866455064
 20
-6799.756243738902
 30
0.0
 11
16515.07393176839
 21
-6799.756243738902
 31
0.0
  0
LINE
  5
E18C
330
E189
100
AcDbEntity
  8
尺寸标注层
 62
     0
370
    -2
100
AcDbLine
 10
16494.07393176838
 20
-6749.95405480741
 30
0.0
 11
16522.07393176839
 21
-6749.95405480741
 31
0.0
  0
LINE
  5
E18D
330
E189
100
AcDbEntity
  8
尺寸标注层
 62
     0
370
    -2
100
AcDbLine
 10
16522.07393176839
 20
-6749.95405480741
 30
0.0
 11
16522.07393176839
 21
-6799.756243738902
 31
0.0
  0
LINE
  5
E18E
330
E189
100
AcDbEntity
  8
尺寸标注层
 62
     0
370
    -2
100
AcDbLine
 10
16522.07393176839
 20
-6837.256243738902
 30
0.0
 11
16522.07393176839
 21
-6799.756243738902
 31
0.0
  0
LINE
  5
E18F
330
E189
100
AcDbEntity
  8
尺寸标注层
 62
     0
370
    -2
100
AcDbLine
 10
16522.07393176839
 20
-6865.256243738902
 30
0.0
 11
16522.07393176839
 21
-6893.256243738902
 31
0.0
  0
LINE
  5
E190
330
E189
100
AcDbEntity
  8
尺寸标注层
 62
     0
370
    -2
100
AcDbLine
 10
16522.07393176839
 20
-6771.756243738902
 30
0.0
 11
16522.07393176839
 21
-6743.756243738902
 31
0.0
  0
SOLID
  5
E191
330
E189
100
AcDbEntity
  8
尺寸标注层
 62
     0
100
AcDbTrace
 10
16526.74059843505
 20
-6865.256243738902
 30
0.0
 11
16517.40726510172
 21
-6865.256243738902
 31
0.0
 12
16522.07393176839
 22
-6837.256243738902
 32
0.0
 13
16522.07393176839
 23
-6837.256243738902
 33
0.0
  0
SOLID
  5
E192
330
E189
100
AcDbEntity
  8
尺寸标注层
 62
     0
100
AcDbTrace
 10
16517.40726510172
 20
-6771.756243738902
 30
0.0
 11
16526.74059843505
 21
-6771.756243738902
 31
0.0
 12
16522.07393176839
 22
-6799.756243738902
 32
0.0
 13
16522.07393176839
 23
-6799.756243738902
 33
0.0
  0
MTEXT
  5
E193
330
E189
100
AcDbEntity
  8
尺寸标注层
 62
     0
100
AcDbMText
 10
16429.61559843505
 20
-6749.95405480741
 30
0.0
 40
21.0
 41
0.0
 46
0.0
 71
     5
 72
     5
  1
\A1;37.5%%p2
 73
     1
 44
1.0
  0
POINT
  5
E194
330
E189
100
AcDbEntity
  8
Defpoints
 62
     0
100
AcDbPoint
 10
16543.16866455064
 20
-6837.256243738902
 30
0.0
  0
POINT
  5
E195
330
E189
100
AcDbEntity
  8
Defpoints
 62
     0
100
AcDbPoint
 10
16543.16866455064
 20
-6799.756243738902
 30
0.0
  0
POINT
  5
E196
330
E189
100
AcDbEntity
  8
Defpoints
 62
     0
100
AcDbPoint
 10
16522.07393176839
 20
-6799.756243738902
 30
0.0
  0
ENDBLK
  5
E198
330
E189
100
AcDbEntity
  8
0
100
AcDbBlockEnd
  0
BLOCK
  5
E1A7
330
E199
100
AcDbEntity
  8
0
100
AcDbBlockBegin
  2
*D26
 70
     1
 10
0.0
 20
0.0
 30
0.0
  3
*D26
  1

  0
LINE
  5
EBAF
330
E199
100
AcDbEntity
  8
尺寸标注层
 62
     0
370
    -2
100
AcDbLine
 10
16579.91925865913
 20
-6947.256243738903
 30
0.0
 11
16482.35977932305
 21
-6947.256243738903
 31
0.0
  0
LINE
  5
EBB0
330
E199
100
AcDbEntity
  8
尺寸标注层
 62
     0
370
    -2
100
AcDbLine
 10
16579.91925910487
 20
-6994.756243738902
 30
0.0
 11
16482.35977932305
 21
-6994.756243738902
 31
0.0
  0
LINE
  5
EBB1
330
E199
100
AcDbEntity
  8
尺寸标注层
 62
     0
370
    -2
100
AcDbLine
 10
16461.35977932305
 20
-7038.657729237868
 30
0.0
 11
16489.35977932304
 21
-7038.657729237868
 31
0.0
  0
LINE
  5
EBB2
330
E199
100
AcDbEntity
  8
尺寸标注层
 62
     0
370
    -2
100
AcDbLine
 10
16489.35977932304
 20
-7038.657729237868
 30
0.0
 11
16489.35977932304
 21
-6994.756243738902
 31
0.0
  0
LINE
  5
EBB3
330
E199
100
AcDbEntity
  8
尺寸标注层
 62
     0
370
    -2
100
AcDbLine
 10
16489.35977932304
 20
-6947.256243738903
 30
0.0
 11
16489.35977932304
 21
-6994.756243738902
 31
0.0
  0
LINE
  5
EBB4
330
E199
100
AcDbEntity
  8
尺寸标注层
 62
     0
370
    -2
100
AcDbLine
 10
16489.35977932304
 20
-6919.256243738903
 30
0.0
 11
16489.35977932304
 21
-6891.256243738903
 31
0.0
  0
LINE
  5
EBB5
330
E199
100
AcDbEntity
  8
尺寸标注层
 62
     0
370
    -2
100
AcDbLine
 10
16489.35977932304
 20
-7022.756243738903
 30
0.0
 11
16489.35977932304
 21
-7050.756243738902
 31
0.0
  0
SOLID
  5
EBB6
330
E199
100
AcDbEntity
  8
尺寸标注层
 62
     0
100
AcDbTrace
 10
16484.69311265638
 20
-6919.256243738903
 30
0.0
 11
16494.02644598971
 21
-6919.256243738903
 31
0.0
 12
16489.35977932304
 22
-6947.256243738903
 32
0.0
 13
16489.35977932304
 23
-6947.256243738903
 33
0.0
  0
SOLID
  5
EBB7
330
E199
100
AcDbEntity
  8
尺寸标注层
 62
     0
100
AcDbTrace
 10
16494.02644598971
 20
-7022.756243738903
 30
0.0
 11
16484.69311265638
 21
-7022.756243738903
 31
0.0
 12
16489.35977932304
 22
-6994.756243738902
 32
0.0
 13
16489.35977932304
 23
-6994.756243738902
 33
0.0
  0
MTEXT
  5
EBB8
330
E199
100
AcDbEntity
  8
尺寸标注层
 62
     0
100
AcDbMText
 10
16381.61811265638
 20
-7038.657729237868
 30
0.0
 40
21.0
 41
0.0
 46
0.0
 71
     5
 72
     5
  1
\A1;47.5%%p2.5
 73
     1
 44
1.0
  0
POINT
  5
EBB9
330
E199
100
AcDbEntity
  8
Defpoints
 62
     0
100
AcDbPoint
 10
16579.91925865913
 20
-6947.256243738903
 30
0.0
  0
POINT
  5
EBBA
330
E199
100
AcDbEntity
  8
Defpoints
 62
     0
100
AcDbPoint
 10
16579.91925910487
 20
-6994.756243738902
 30
0.0
  0
POINT
  5
EBBB
330
E199
100
AcDbEntity
  8
Defpoints
 62
     0
100
AcDbPoint
 10
16489.35977932304
 20
-6994.756243738902
 30
0.0
  0
ENDBLK
  5
E1A8
330
E199
100
AcDbEntity
  8
0
100
AcDbBlockEnd
  0
BLOCK
  5
E1B6
330
E1A9
100
AcDbEntity
  8
0
100
AcDbBlockBegin
  2
*D27
 70
     1
 10
0.0
 20
0.0
 30
0.0
  3
*D27
  1

  0
LINE
  5
EBC4
330
E1A9
100
AcDbEntity
  8
尺寸标注层
 62
     0
370
    -2
100
AcDbLine
 10
16602.16925865913
 20
-6994.756243738902
 30
0.0
 11
16887.27344277564
 21
-6994.756243738902
 31
0.0
  0
LINE
  5
EBC5
330
E1A9
100
AcDbEntity
  8
尺寸标注层
 62
     0
370
    -2
100
AcDbLine
 10
16800.59955662498
 20
-6800.022376620603
 30
0.0
 11
16887.27344277564
 21
-6800.022376620603
 31
0.0
  0
LINE
  5
EBC6
330
E1A9
100
AcDbEntity
  8
尺寸标注层
 62
     0
370
    -2
100
AcDbLine
 10
16880.27344277565
 20
-6994.756243738902
 30
0.0
 11
16880.27344277565
 21
-6953.739310179757
 31
0.0
  0
LINE
  5
EBC7
330
E1A9
100
AcDbEntity
  8
尺寸标注层
 62
     0
370
    -2
100
AcDbLine
 10
16880.27344277565
 20
-6800.022376620603
 30
0.0
 11
16880.27344277565
 21
-6841.039310179752
 31
0.0
  0
LINE
  5
EBC8
330
E1A9
100
AcDbEntity
  8
尺寸标注层
 62
     0
370
    -2
100
AcDbLine
 10
16880.27344277565
 20
-7022.756243738903
 30
0.0
 11
16880.27344277565
 21
-7050.756243738902
 31
0.0
  0
LINE
  5
EBC9
330
E1A9
100
AcDbEntity
  8
尺寸标注层
 62
     0
370
    -2
100
AcDbLine
 10
16880.27344277565
 20
-6772.022376620603
 30
0.0
 11
16880.27344277565
 21
-6744.022376620603
 31
0.0
  0
SOLID
  5
EBCA
330
E1A9
100
AcDbEntity
  8
尺寸标注层
 62
     0
100
AcDbTrace
 10
16884.94010944231
 20
-7022.756243738903
 30
0.0
 11
16875.60677610898
 21
-7022.756243738903
 31
0.0
 12
16880.27344277565
 22
-6994.756243738902
 32
0.0
 13
16880.27344277565
 23
-6994.756243738902
 33
0.0
  0
SOLID
  5
EBCB
330
E1A9
100
AcDbEntity
  8
尺寸标注层
 62
     0
100
AcDbTrace
 10
16875.60677610898
 20
-6772.022376620603
 30
0.0
 11
16884.94010944231
 21
-6772.022376620603
 31
0.0
 12
16880.27344277565
 22
-6800.022376620603
 32
0.0
 13
16880.27344277565
 23
-6800.022376620603
 33
0.0
  0
MTEXT
  5
EBCC
330
E1A9
100
AcDbEntity
  8
尺寸标注层
 62
     0
100
AcDbMText
 10
16880.27344277565
 20
-6897.389310179753
 30
0.0
 40
21.0
 41
0.0
 46
0.0
 71
     5
 72
     5
  1
\A1;195±6
 11
0.0
 21
1.0
 31
0.0
 73
     1
 44
1.0
  0
POINT
  5
EBCD
330
E1A9
100
AcDbEntity
  8
Defpoints
 62
     0
100
AcDbPoint
 10
16602.16925865913
 20
-6994.756243738902
 30
0.0
  0
POINT
  5
EBCE
330
E1A9
100
AcDbEntity
  8
Defpoints
 62
     0
100
AcDbPoint
 10
16800.59955662498
 20
-6800.022376620603
 30
0.0
  0
POINT
  5
EBCF
330
E1A9
100
AcDbEntity
  8
Defpoints
 62
     0
100
AcDbPoint
 10
16880.27344277565
 20
-6800.022376620603
 30
0.0
  0
ENDBLK
  5
E1B7
330
E1A9
100
AcDbEntity
  8
0
100
AcDbBlockEnd
  0
BLOCK
  5
E1C3
330
E1B8
100
AcDbEntity
  8
0
100
AcDbBlockBegin
  2
*D28
 70
     1
 10
0.0
 20
0.0
 30
0.0
  3
*D28
  1

  0
LINE
  5
EB99
330
E1B8
100
AcDbEntity
  8
尺寸标注层
 62
     0
370
    -2
100
AcDbLine
 10
17273.88628390205
 20
-7057.517498640992
 30
0.0
 11
17273.88628390205
 21
-7078.14172092676
 31
0.0
  0
LINE
  5
EB9A
330
E1B8
100
AcDbEntity
  8
尺寸标注层
 62
     0
370
    -2
100
AcDbLine
 10
17498.88628345631
 20
-6811.756243738902
 30
0.0
 11
17498.88628345631
 21
-7078.14172092676
 31
0.0
  0
LINE
  5
EB9B
330
E1B8
100
AcDbEntity
  8
尺寸标注层
 62
     0
370
    -2
100
AcDbLine
 10
17301.88628390205
 20
-7071.14172092676
 30
0.0
 11
17329.27795034585
 21
-7071.14172092676
 31
0.0
  0
LINE
  5
EB9C
330
E1B8
100
AcDbEntity
  8
尺寸标注层
 62
     0
370
    -2
100
AcDbLine
 10
17470.88628345631
 20
-7071.14172092676
 30
0.0
 11
17443.49461701252
 21
-7071.14172092676
 31
0.0
  0
SOLID
  5
EB9D
330
E1B8
100
AcDbEntity
  8
尺寸标注层
 62
     0
100
AcDbTrace
 10
17301.88628390205
 20
-7066.475054260092
 30
0.0
 11
17301.88628390205
 21
-7075.808387593427
 31
0.0
 12
17273.88628390205
 22
-7071.14172092676
 32
0.0
 13
17273.88628390205
 23
-7071.14172092676
 33
0.0
  0
SOLID
  5
EB9E
330
E1B8
100
AcDbEntity
  8
尺寸标注层
 62
     0
100
AcDbTrace
 10
17470.88628345631
 20
-7075.808387593427
 30
0.0
 11
17470.88628345631
 21
-7066.475054260092
 31
0.0
 12
17498.88628345631
 22
-7071.14172092676
 32
0.0
 13
17498.88628345631
 23
-7071.14172092676
 33
0.0
  0
MTEXT
  5
EB9F
330
E1B8
100
AcDbEntity
  8
尺寸标注层
 62
     0
100
AcDbMText
 10
17386.38628367918
 20
-7071.14172092676
 30
0.0
 40
21.0
 41
0.0
 46
0.0
 71
     5
 72
     5
  1
\A1;225%%p5
 73
     1
 44
1.0
  0
POINT
  5
EBA0
330
E1B8
100
AcDbEntity
  8
Defpoints
 62
     0
100
AcDbPoint
 10
17273.88628390205
 20
-7057.517498640992
 30
0.0
  0
POINT
  5
EBA1
330
E1B8
100
AcDbEntity
  8
Defpoints
 62
     0
100
AcDbPoint
 10
17498.88628345631
 20
-6811.756243738902
 30
0.0
  0
POINT
  5
EBA2
330
E1B8
100
AcDbEntity
  8
Defpoints
 62
     0
100
AcDbPoint
 10
17498.88628345631
 20
-7071.14172092676
 30
0.0
  0
ENDBLK
  5
E1C4
330
E1B8
100
AcDbEntity
  8
0
100
AcDbBlockEnd
  0
BLOCK
  5
E1E3
330
E1E2
100
AcDbEntity
  8
0
 62
     3
100
AcDbBlockBegin
  2
324
 70
     0
 10
0.0
 20
0.0
 30
0.0
  3
324
  1

  0
MTEXT
  5
E1E4
330
E1E2
100
AcDbEntity
  8
细实线
100
AcDbMText
 10
29054.37823481583
 20
-55732.52507939721
 30
0.0
 40
11.27268679680001
 41
376.5520848629087
 46
0.0
 71
     1
 72
     5
  1
AXENT(HEBEI)CERAMICS  INDUSTRY  CO.,LTD
  7
Arial
 73
     1
 44
1.0
  0
MTEXT
  5
E1E5
330
E1E2
100
AcDbEntity
  8
细实线
100
AcDbMText
 10
29176.06739685612
 20
-55671.61054363424
 30
0.0
 40
23.48476416000001
 41
101.8650775012487
 46
0.0
 71
     1
 72
     5
  1
AXENT
  7
Arial
 73
     1
 44
1.0
  0
MTEXT
  5
E1E6
330
E1E2
100
AcDbEntity
  8
细实线
100
AcDbMText
 10
29132.28115667855
 20
-55707.913045229
 30
0.0
 40
14.09085849600001
 41
272.3719768829322
 46
0.0
 71
     1
 72
     5
  1
河北优胜洁具有限公司
 73
     1
 44
1.0
  0
LINE
  5
E1E7
330
E1E2
100
AcDbEntity
  8
图框层
100
AcDbLine
 10
29131.45767891429
 20
-55701.98589061343
 30
0.0
 11
29329.77890166011
 21
-55701.98589061343
 31
0.0
  0
ENDBLK
  5
E1E8
330
E1E2
100
AcDbEntity
  8
0
 62
     3
100
AcDbBlockEnd
  0
BLOCK
  5
E1EA
330
E1E9
100
AcDbEntity
  8
0
100
AcDbBlockBegin
  2
DDD
 70
     0
 10
0.0
 20
0.0
 30
0.0
  3
DDD
  1

  0
LINE
  5
E1EB
330
E1E9
100
AcDbEntity
  8
0
  6
Continuous
 62
     7
100
AcDbLine
 10
51194.70621837558
 20
-12226.34013739273
 30
0.0
 11
51194.70621837558
 21
-12228.15275296673
 31
0.0
  0
LINE
  5
E1EC
330
E1E9
100
AcDbEntity
  8
0
  6
Continuous
 62
     7
100
AcDbLine
 10
51202.58632591157
 20
-12221.92562399343
 30
0.0
 11
51202.58632591157
 21
-12223.73823956743
 31
0.0
  0
LINE
  5
E1ED
330
E1E9
100
AcDbEntity
  8
0
  6
Continuous
 62
     7
100
AcDbLine
 10
51203.94114050547
 20
-12231.33555341653
 30
0.0
 11
51203.94114050547
 21
-12233.14816899063
 31
0.0
  0
LINE
  5
E1EE
330
E1E9
100
AcDbEntity
  8
0
  6
Continuous
 62
     7
100
AcDbLine
 10
51210.46643344768
 20
-12217.51111059413
 30
0.0
 11
51210.46643344768
 21
-12219.32372616813
 31
0.0
  0
LINE
  5
E1EF
330
E1E9
100
AcDbEntity
  8
0
  6
Continuous
 62
     7
100
AcDbLine
 10
51211.82124804147
 20
-12226.92104001723
 30
0.0
 11
51211.82124804147
 21
-12228.73365559133
 31
0.0
  0
LINE
  5
E1F0
330
E1E9
100
AcDbEntity
  8
0
  6
Continuous
 62
     7
100
AcDbLine
 10
51218.34654098377
 20
-12213.09659719483
 30
0.0
 11
51218.34654098377
 21
-12214.90921276883
 31
0.0
  0
LINE
  5
E1F1
330
E1E9
100
AcDbEntity
  8
0
  6
Continuous
 62
     7
100
AcDbLine
 10
51219.70135557758
 20
-12222.50652661793
 30
0.0
 11
51219.70135557758
 21
-12224.31914219203
 31
0.0
  0
LINE
  5
E1F2
330
E1E9
100
AcDbEntity
  8
0
  6
Continuous
 62
     7
100
AcDbLine
 10
51226.22664851978
 20
-12208.68208379553
 30
0.0
 11
51226.22664851978
 21
-12210.49469936953
 31
0.0
  0
LINE
  5
E1F3
330
E1E9
100
AcDbEntity
  8
0
  6
Continuous
 62
     7
100
AcDbLine
 10
51227.58146311368
 20
-12218.09201321863
 30
0.0
 11
51227.58146311368
 21
-12219.90462879273
 31
0.0
  0
LINE
  5
E1F4
330
E1E9
100
AcDbEntity
  8
0
  6
Continuous
 62
     7
100
AcDbLine
 10
51235.46157064968
 20
-12213.67749981933
 30
0.0
 11
51235.46157064968
 21
-12215.49011539343
 31
0.0
  0
LINE
  5
E1F5
330
E1E9
100
AcDbEntity
  8
0
  6
Continuous
 62
     7
100
AcDbLine
 10
51243.34167818577
 20
-12211.98190978113
 30
0.0
 11
51243.34167818577
 21
-12211.07560199413
 31
0.0
  0
LINE
  5
E1F6
330
E1E9
100
AcDbEntity
  8
0
  6
Continuous
 62
     7
100
AcDbLine
 10
51194.70621837558
 20
-12228.15275296673
 30
0.0
 11
51203.94114050547
 21
-12233.14816899063
 31
0.0
  0
LINE
  5
E1F7
330
E1E9
100
AcDbEntity
  8
0
  6
Continuous
 62
     7
100
AcDbLine
 10
51194.70621837558
 20
-12226.34013739273
 30
0.0
 11
51203.94114050547
 21
-12231.33555341653
 31
0.0
  0
LINE
  5
E1F8
330
E1E9
100
AcDbEntity
  8
0
  6
Continuous
 62
     7
100
AcDbLine
 10
51202.58632591157
 20
-12223.73823956743
 30
0.0
 11
51211.82124804147
 21
-12228.73365559133
 31
0.0
  0
LINE
  5
E1F9
330
E1E9
100
AcDbEntity
  8
0
  6
Continuous
 62
     7
100
AcDbLine
 10
51202.58632591157
 20
-12221.92562399343
 30
0.0
 11
51211.82124804147
 21
-12226.92104001723
 31
0.0
  0
LINE
  5
E1FA
330
E1E9
100
AcDbEntity
  8
0
  6
Continuous
 62
     7
100
AcDbLine
 10
51210.46643344768
 20
-12219.32372616813
 30
0.0
 11
51219.70135557758
 21
-12224.31914219203
 31
0.0
  0
LINE
  5
E1FB
330
E1E9
100
AcDbEntity
  8
0
  6
Continuous
 62
     7
100
AcDbLine
 10
51210.46643344768
 20
-12217.51111059413
 30
0.0
 11
51219.70135557758
 21
-12222.50652661793
 31
0.0
  0
LINE
  5
E1FC
330
E1E9
100
AcDbEntity
  8
0
  6
Continuous
 62
     7
100
AcDbLine
 10
51251.22178572187
 20
-12211.19262752993
 30
0.0
 11
51251.22178572187
 21
-12209.38001195593
 31
0.0
  0
LINE
  5
E1FD
330
E1E9
100
AcDbEntity
  8
0
  6
Continuous
 62
     7
100
AcDbLine
 10
51259.10189325788
 20
-12210.40334527883
 30
0.0
 11
51259.10189325788
 21
-12208.59072970473
 31
0.0
  0
LINE
  5
E1FE
330
E1E9
100
AcDbEntity
  8
0
  6
Continuous
 62
     7
100
AcDbLine
 10
51266.98200079397
 20
-12209.61406302763
 30
0.0
 11
51266.98200079397
 21
-12207.80144745363
 31
0.0
  0
LINE
  5
E1FF
330
E1E9
100
AcDbEntity
  8
0
  6
Continuous
 62
     7
100
AcDbLine
 10
51274.86210833008
 20
-12208.82478077653
 30
0.0
 11
51274.86210833008
 21
-12207.01216520243
 31
0.0
  0
LINE
  5
E200
330
E1E9
100
AcDbEntity
  8
0
  6
Continuous
 62
     7
100
AcDbLine
 10
51282.74221586608
 20
-12207.12919073833
 30
0.0
 11
51282.74221586608
 21
-12206.22288295133
 31
0.0
  0
LINE
  5
E201
330
E1E9
100
AcDbEntity
  8
0
  6
Continuous
 62
     7
100
AcDbLine
 10
51218.34654098377
 20
-12214.90921276883
 30
0.0
 11
51227.58146311368
 21
-12219.90462879273
 31
0.0
  0
LINE
  5
E202
330
E1E9
100
AcDbEntity
  8
0
  6
Continuous
 62
     7
100
AcDbLine
 10
51218.34654098377
 20
-12213.09659719483
 30
0.0
 11
51227.58146311368
 21
-12218.09201321863
 31
0.0
  0
LINE
  5
E203
330
E1E9
100
AcDbEntity
  8
0
  6
Continuous
 62
     7
100
AcDbLine
 10
51226.22664851978
 20
-12210.49469936953
 30
0.0
 11
51235.46157064968
 21
-12215.49011539343
 31
0.0
  0
LINE
  5
E204
330
E1E9
100
AcDbEntity
  8
0
  6
Continuous
 62
     7
100
AcDbLine
 10
51226.22664851978
 20
-12208.68208379553
 30
0.0
 11
51235.46157064968
 21
-12213.67749981933
 31
0.0
  0
LINE
  5
E205
330
E1E9
100
AcDbEntity
  8
0
  6
Continuous
 62
     7
100
AcDbLine
 10
51234.10675605588
 20
-12206.08018597023
 30
0.0
 11
51243.34167818577
 21
-12211.07560199413
 31
0.0
  0
LINE
  5
E206
330
E1E9
100
AcDbEntity
  8
0
  6
Continuous
 62
     7
100
AcDbLine
 10
51241.98686359197
 20
-12204.38459593203
 30
0.0
 11
51251.22178572187
 21
-12209.38001195593
 31
0.0
  0
LINE
  5
E207
330
E1E9
100
AcDbEntity
  8
0
  6
Continuous
 62
     7
100
AcDbLine
 10
51249.86697112797
 20
-12203.59531368093
 30
0.0
 11
51259.10189325788
 21
-12208.59072970473
 31
0.0
  0
LINE
  5
E208
330
E1E9
100
AcDbEntity
  8
0
  6
Continuous
 62
     7
100
AcDbLine
 10
51257.74707866408
 20
-12202.80603142973
 30
0.0
 11
51266.98200079397
 21
-12207.80144745363
 31
0.0
  0
LINE
  5
E209
330
E1E9
100
AcDbEntity
  8
0
  6
Continuous
 62
     7
100
AcDbLine
 10
51265.62718620018
 20
-12202.01674917863
 30
0.0
 11
51274.86210833008
 21
-12207.01216520243
 31
0.0
  0
LINE
  5
E20A
330
E1E9
100
AcDbEntity
  8
0
  6
Continuous
 62
     7
100
AcDbLine
 10
51273.50729373618
 20
-12201.22746692743
 30
0.0
 11
51282.74221586608
 21
-12206.22288295133
 31
0.0
  0
LINE
  5
E20B
330
E1E9
100
AcDbEntity
  8
0
  6
Continuous
 62
     7
100
AcDbLine
 10
51234.10675605588
 20
-12206.08018597023
 30
0.0
 11
51226.22664851978
 21
-12208.68208379553
 31
0.0
  0
LINE
  5
E20C
330
E1E9
100
AcDbEntity
  8
0
  6
Continuous
 62
     7
100
AcDbLine
 10
51241.98686359197
 20
-12204.38459593203
 30
0.0
 11
51235.14715900587
 21
-12206.64296771273
 31
0.0
  0
LINE
  5
E20D
330
E1E9
100
AcDbEntity
  8
0
  6
Continuous
 62
     7
100
AcDbLine
 10
51226.22664851978
 20
-12210.49469936953
 30
0.0
 11
51218.34654098377
 21
-12213.09659719483
 31
0.0
  0
LINE
  5
E20E
330
E1E9
100
AcDbEntity
  8
0
  6
Continuous
 62
     7
100
AcDbLine
 10
51249.86697112797
 20
-12203.59531368093
 30
0.0
 11
51244.06766949187
 21
-12205.51015941693
 31
0.0
  0
LINE
  5
E20F
330
E1E9
100
AcDbEntity
  8
0
  6
Continuous
 62
     7
100
AcDbLine
 10
51218.34654098377
 20
-12214.90921276883
 30
0.0
 11
51210.46643344768
 21
-12217.51111059413
 31
0.0
  0
LINE
  5
E210
330
E1E9
100
AcDbEntity
  8
0
  6
Continuous
 62
     7
100
AcDbLine
 10
51257.74707866408
 20
-12202.80603142973
 30
0.0
 11
51251.94777702798
 21
-12204.72087716583
 31
0.0
  0
LINE
  5
E211
330
E1E9
100
AcDbEntity
  8
0
  6
Continuous
 62
     7
100
AcDbLine
 10
51210.46643344768
 20
-12219.32372616813
 30
0.0
 11
51202.58632591157
 21
-12221.92562399343
 31
0.0
  0
LINE
  5
E212
330
E1E9
100
AcDbEntity
  8
0
  6
Continuous
 62
     7
100
AcDbLine
 10
51265.62718620018
 20
-12202.01674917863
 30
0.0
 11
51259.82788456398
 21
-12203.93159491463
 31
0.0
  0
LINE
  5
E213
330
E1E9
100
AcDbEntity
  8
0
  6
Continuous
 62
     7
100
AcDbLine
 10
51202.58632591157
 20
-12223.73823956743
 30
0.0
 11
51194.70621837558
 21
-12226.34013739273
 31
0.0
  0
LINE
  5
E214
330
E1E9
100
AcDbEntity
  8
0
  6
Continuous
 62
     7
100
AcDbLine
 10
51243.34167818577
 20
-12211.07560199413
 30
0.0
 11
51235.46157064968
 21
-12213.67749981933
 31
0.0
  0
LINE
  5
E215
330
E1E9
100
AcDbEntity
  8
0
  6
Continuous
 62
     7
100
AcDbLine
 10
51273.50729373618
 20
-12201.22746692743
 30
0.0
 11
51267.70799210008
 21
-12203.14231266343
 31
0.0
  0
LINE
  5
E216
330
E1E9
100
AcDbEntity
  8
0
  6
Continuous
 62
     7
100
AcDbLine
 10
51251.22178572187
 20
-12209.38001195593
 30
0.0
 11
51243.34167818577
 21
-12211.98190978113
 31
0.0
  0
LINE
  5
E217
330
E1E9
100
AcDbEntity
  8
0
  6
Continuous
 62
     7
100
AcDbLine
 10
51235.46157064968
 20
-12215.49011539343
 30
0.0
 11
51227.58146311368
 21
-12218.09201321863
 31
0.0
  0
LINE
  5
E218
330
E1E9
100
AcDbEntity
  8
0
  6
Continuous
 62
     7
100
AcDbLine
 10
51259.10189325788
 20
-12208.59072970473
 30
0.0
 11
51251.22178572187
 21
-12211.19262752993
 31
0.0
  0
LINE
  5
E219
330
E1E9
100
AcDbEntity
  8
0
  6
Continuous
 62
     7
100
AcDbLine
 10
51227.58146311368
 20
-12219.90462879273
 30
0.0
 11
51219.70135557758
 21
-12222.50652661793
 31
0.0
  0
LINE
  5
E21A
330
E1E9
100
AcDbEntity
  8
0
  6
Continuous
 62
     7
100
AcDbLine
 10
51266.98200079397
 20
-12207.80144745363
 30
0.0
 11
51259.10189325788
 21
-12210.40334527883
 31
0.0
  0
LINE
  5
E21B
330
E1E9
100
AcDbEntity
  8
0
  6
Continuous
 62
     7
100
AcDbLine
 10
51219.70135557758
 20
-12224.31914219203
 30
0.0
 11
51211.82124804147
 21
-12226.92104001723
 31
0.0
  0
LINE
  5
E21C
330
E1E9
100
AcDbEntity
  8
0
  6
Continuous
 62
     7
100
AcDbLine
 10
51274.86210833008
 20
-12207.01216520243
 30
0.0
 11
51266.98200079397
 21
-12209.61406302763
 31
0.0
  0
LINE
  5
E21D
330
E1E9
100
AcDbEntity
  8
0
  6
Continuous
 62
     7
100
AcDbLine
 10
51211.82124804147
 20
-12228.73365559133
 30
0.0
 11
51203.94114050547
 21
-12231.33555341653
 31
0.0
  0
LINE
  5
E21E
330
E1E9
100
AcDbEntity
  8
0
  6
Continuous
 62
     7
100
AcDbLine
 10
51282.74221586608
 20
-12206.22288295133
 30
0.0
 11
51274.86210833008
 21
-12208.82478077653
 31
0.0
  0
LINE
  5
E21F
330
E1E9
100
AcDbEntity
  8
0
  6
Continuous
 62
     7
100
AcDbLine
 10
51203.94114050547
 20
-12233.14816899063
 30
0.0
 11
51282.74221586608
 21
-12207.12919073833
 31
0.0
  0
ENDBLK
  5
E220
330
E1E9
100
AcDbEntity
  8
0
100
AcDbBlockEnd
  0
BLOCK
  5
E222
330
E221
100
AcDbEntity
  8
0
100
AcDbBlockBegin
  2
SFA
 70
     0
 10
0.0
 20
0.0
 30
0.0
  3
SFA
  1

  0
LINE
  5
E223
330
E221
100
AcDbEntity
  8
0
  6
Continuous
 62
     7
100
AcDbLine
 10
53076.7549657921
 20
-12393.18312823724
 30
0.0
 11
53058.2851215323
 21
-12383.19229618954
 31
0.0
  0
LINE
  5
E224
330
E221
100
AcDbEntity
  8
0
  6
Continuous
 62
     7
100
AcDbLine
 10
53076.7549657921
 20
-12365.99389462614
 30
0.0
 11
53058.2851215323
 21
-12356.00306257844
 31
0.0
  0
LINE
  5
E225
330
E221
100
AcDbEntity
  8
0
  6
Continuous
 62
     7
100
AcDbLine
 10
53058.2851215323
 20
-12383.19229618954
 30
0.0
 11
53058.2851215323
 21
-12356.00306257844
 31
0.0
  0
LINE
  5
E226
330
E221
100
AcDbEntity
  8
0
  6
Continuous
 62
     7
100
AcDbLine
 10
53076.7549657921
 20
-12393.18312823724
 30
0.0
 11
53076.7549657921
 21
-12365.99389462614
 31
0.0
  0
LINE
  5
E227
330
E221
100
AcDbEntity
  8
0
  6
Continuous
 62
     7
100
AcDbLine
 10
53130.39016992886
 20
-12348.28432399396
 30
0.0
 11
53111.92032566907
 21
-12338.29349194625
 31
0.0
  0
LINE
  5
E228
330
E221
100
AcDbEntity
  8
0
  6
Continuous
 62
     7
100
AcDbLine
 10
53193.43103021736
 20
-12341.06375819765
 30
0.0
 11
53191.34970275407
 21
-12339.93791258525
 31
0.0
  0
LINE
  5
E229
330
E221
100
AcDbEntity
  8
0
  6
Continuous
 62
     7
100
AcDbLine
 10
53191.34970275407
 20
-12330.87483471486
 30
0.0
 11
53179.03647324757
 21
-12324.21428001645
 31
0.0
  0
LINE
  5
E22A
330
E221
100
AcDbEntity
  8
0
  6
Continuous
 62
     7
100
AcDbLine
 10
53193.43103021736
 20
-12327.46914139215
 30
0.0
 11
53174.96118595767
 21
-12317.47830934445
 31
0.0
  0
LINE
  5
E22B
330
E221
100
AcDbEntity
  8
0
  6
Continuous
 62
     7
100
AcDbLine
 10
53130.39016992886
 20
-12348.28432399396
 30
0.0
 11
53130.39016992886
 21
-12361.87894079955
 31
0.0
  0
LINE
  5
E22C
330
E221
100
AcDbEntity
  8
0
  6
Continuous
 62
     7
100
AcDbLine
 10
53058.2851215323
 20
-12356.00306257844
 30
0.0
 11
53111.92032566907
 21
-12338.29349194625
 31
0.0
  0
LINE
  5
E22D
330
E221
100
AcDbEntity
  8
0
  6
Continuous
 62
     7
100
AcDbLine
 10
53174.96118595767
 20
-12317.47830934445
 30
0.0
 11
53229.16994701025
 21
-12299.57935849316
 31
0.0
  0
LINE
  5
E22E
330
E221
100
AcDbEntity
  8
0
  6
Continuous
 62
     7
100
AcDbLine
 10
53179.03647324757
 20
-12324.21428001645
 30
0.0
 11
53121.19762770887
 21
-12343.31183239525
 31
0.0
  0
LINE
  5
E22F
330
E221
100
AcDbEntity
  8
0
  6
Continuous
 62
     7
100
AcDbLine
 10
53076.7549657921
 20
-12365.99389462614
 30
0.0
 11
53130.39016992886
 21
-12348.28432399396
 31
0.0
  0
LINE
  5
E230
330
E221
100
AcDbEntity
  8
0
  6
Continuous
 62
     7
100
AcDbLine
 10
53193.43103021736
 20
-12327.46914139215
 30
0.0
 11
53247.63979127012
 21
-12309.57019054079
 31
0.0
  0
LINE
  5
E231
330
E221
100
AcDbEntity
  8
0
  6
Continuous
 62
     7
100
AcDbLine
 10
53130.39016992886
 20
-12351.00279301476
 30
0.0
 11
53191.34970275407
 21
-12330.87483471486
 31
0.0
  0
LINE
  5
E232
330
E221
100
AcDbEntity
  8
0
  6
Continuous
 62
     7
100
AcDbLine
 10
53174.96118595767
 20
-12317.47830934445
 30
0.0
 11
53174.96118595767
 21
-12325.55988108706
 31
0.0
  0
LINE
  5
E233
330
E221
100
AcDbEntity
  8
0
  6
Continuous
 62
     7
100
AcDbLine
 10
53130.39016992886
 20
-12360.06587088515
 30
0.0
 11
53191.34970275407
 21
-12339.93791258525
 31
0.0
  0
LINE
  5
E234
330
E221
100
AcDbEntity
  8
0
  6
Continuous
 62
     7
100
AcDbLine
 10
53193.43103021736
 20
-12341.06375819765
 30
0.0
 11
53130.39016992886
 21
-12361.87894079955
 31
0.0
  0
LINE
  5
E235
330
E221
100
AcDbEntity
  8
0
  6
Continuous
 62
     7
100
AcDbLine
 10
53247.63979127012
 20
-12336.75942415188
 30
0.0
 11
53076.75496579212
 21
-12393.18312823725
 31
0.0
  0
LINE
  5
E236
330
E221
100
AcDbEntity
  8
0
  6
Continuous
 62
     7
100
AcDbLine
 10
53191.34970275407
 20
-12339.93791258525
 30
0.0
 11
53191.34970275407
 21
-12330.87483471486
 31
0.0
  0
LINE
  5
E237
330
E221
100
AcDbEntity
  8
0
  6
Continuous
 62
     7
100
AcDbLine
 10
53193.43103021736
 20
-12327.46914139215
 30
0.0
 11
53193.43103021736
 21
-12341.06375819765
 31
0.0
  0
LINE
  5
E238
330
E221
100
AcDbEntity
  8
0
  6
Continuous
 62
     7
100
AcDbLine
 10
53229.16994701031
 20
-12299.57935849319
 30
0.0
 11
53247.63979127012
 21
-12309.57019054079
 31
0.0
  0
LINE
  5
E239
330
E221
100
AcDbEntity
  8
0
  6
Continuous
 62
     7
100
AcDbLine
 10
53247.63979127012
 20
-12336.75942415189
 30
0.0
 11
53247.63979127012
 21
-12309.57019054079
 31
0.0
  0
ENDBLK
  5
E23A
330
E221
100
AcDbEntity
  8
0
100
AcDbBlockEnd
  0
ENDSEC
  0
SECTION
  2
ENTITIES
  0
LINE
  5
DED5
330
1F
100
AcDbEntity
  8
不打印层
100
AcDbLine
 10
15352.23525633354
 20
-7978.042122053921
 30
0.0
 11
18322.23525633354
 21
-7978.042122053921
 31
0.0
  0
LINE
  5
DED6
330
1F
100
AcDbEntity
  8
图框层
100
AcDbLine
 10
15512.23525633354
 20
-7928.042122053921
 30
0.0
 11
18272.23525633354
 21
-7928.042122053921
 31
0.0
  0
LINE
  5
DED7
330
1F
100
AcDbEntity
  8
尺寸标注
100
AcDbLine
 10
15862.41528298501
 20
-7873.042122053921
 30
0.0
 11
17812.41528298501
 21
-7873.042122053921
 31
0.0
  0
LINE
  5
DED8
330
1F
100
AcDbEntity
  8
尺寸标注
100
AcDbLine
 10
15862.41528298501
 20
-7818.042122053921
 30
0.0
 11
18272.23525633354
 21
-7818.042122053921
 31
0.0
  0
LINE
  5
DED9
330
1F
100
AcDbEntity
  8
尺寸标注
100
AcDbLine
 10
15862.41528298501
 20
-7763.042122053922
 30
0.0
 11
18272.23525633354
 21
-7763.042122053922
 31
0.0
  0
LINE
  5
DEDA
330
1F
100
AcDbEntity
  8
尺寸标注
100
AcDbLine
 10
15862.41528298501
 20
-7708.042122053921
 30
0.0
 11
18272.23525633354
 21
-7708.042122053921
 31
0.0
  0
LINE
  5
DEDB
330
1F
100
AcDbEntity
  8
不打印层
100
AcDbLine
 10
18322.23525633354
 20
-7978.042122053921
 30
0.0
 11
18322.23525633354
 21
-5878.042122053921
 31
0.0
  0
LINE
  5
DEDC
330
1F
100
AcDbEntity
  8
图框层
100
AcDbLine
 10
18272.23525633354
 20
-7928.042122053921
 30
0.0
 11
18272.23525633354
 21
-5928.042122053921
 31
0.0
  0
LINE
  5
DEDD
330
1F
100
AcDbEntity
  8
尺寸标注
100
AcDbLine
 10
18122.23525633354
 20
-6148.042122053921
 30
0.0
 11
18122.23525633354
 21
-5928.042122053921
 31
0.0
  0
LINE
  5
DEDE
330
1F
100
AcDbEntity
  8
尺寸标注
100
AcDbLine
 10
17972.23525633354
 20
-6148.042122053921
 30
0.0
 11
17972.23525633354
 21
-5928.042122053921
 31
0.0
  0
LINE
  5
DEDF
330
1F
100
AcDbEntity
  8
尺寸标注
100
AcDbLine
 10
17872.23525633354
 20
-6148.042122053921
 30
0.0
 11
17872.23525633354
 21
-5928.042122053921
 31
0.0
  0
LINE
  5
DEE0
330
1F
100
AcDbEntity
  8
不打印层
100
AcDbLine
 10
18322.23525633354
 20
-5878.042122053921
 30
0.0
 11
15352.23525633354
 21
-5878.042122053921
 31
0.0
  0
LINE
  5
DEE1
330
1F
100
AcDbEntity
  8
图框层
100
AcDbLine
 10
18272.23525633354
 20
-5928.042122053921
 30
0.0
 11
15512.23525633354
 21
-5928.042122053921
 31
0.0
  0
LINE
  5
DEE2
330
1F
100
AcDbEntity
  8
尺寸标注
100
AcDbLine
 10
18272.23525633354
 20
-5983.042122053921
 30
0.0
 11
17872.23525633354
 21
-5983.042122053921
 31
0.0
  0
LINE
  5
DEE3
330
1F
100
AcDbEntity
  8
尺寸标注
100
AcDbLine
 10
18272.23525633354
 20
-6038.042122053921
 30
0.0
 11
17872.23525633354
 21
-6038.042122053921
 31
0.0
  0
LINE
  5
DEE4
330
1F
100
AcDbEntity
  8
尺寸标注
100
AcDbLine
 10
18272.23525633354
 20
-6093.042122053921
 30
0.0
 11
17872.23525633354
 21
-6093.042122053921
 31
0.0
  0
LINE
  5
DEE5
330
1F
100
AcDbEntity
  8
尺寸标注
100
AcDbLine
 10
18272.23525633354
 20
-6148.042122053921
 30
0.0
 11
17872.23525633354
 21
-6148.042122053921
 31
0.0
  0
LINE
  5
DEE6
330
1F
100
AcDbEntity
  8
不打印层
100
AcDbLine
 10
15352.23525633354
 20
-5878.042122053921
 30
0.0
 11
15352.23525633354
 21
-7978.042122053921
 31
0.0
  0
LINE
  5
DEE7
330
1F
100
AcDbEntity
  8
图框层
100
AcDbLine
 10
15512.23525633354
 20
-5928.042122053921
 30
0.0
 11
15512.23525633354
 21
-7928.042122053921
 31
0.0
  0
LINE
  5
DEE8
330
1F
100
AcDbEntity
  8
细实线
100
AcDbLine
 10
15367.23525633354
 20
-7458.042122053921
 30
0.0
 11
15367.23525633354
 21
-7578.042122053921
 31
0.0
  0
LINE
  5
DEE9
330
1F
100
AcDbEntity
  8
细实线
100
AcDbLine
 10
15367.23525633354
 20
-7578.042122053921
 30
0.0
 11
15497.23525633354
 21
-7578.042122053921
 31
0.0
  0
LINE
  5
DEEA
330
1F
100
AcDbEntity
  8
细实线
100
AcDbLine
 10
15497.23525633354
 20
-7578.042122053921
 30
0.0
 11
15497.23525633354
 21
-7458.042122053921
 31
0.0
  0
LINE
  5
DEEB
330
1F
100
AcDbEntity
  8
细实线
100
AcDbLine
 10
15497.23525633354
 20
-7458.042122053921
 30
0.0
 11
15367.23525633354
 21
-7458.042122053921
 31
0.0
  0
LINE
  5
DEEC
330
1F
100
AcDbEntity
  8
细实线
100
AcDbLine
 10
15367.23525633354
 20
-7518.042122053921
 30
0.0
 11
15497.23525633354
 21
-7518.042122053921
 31
0.0
  0
LINE
  5
DEED
330
1F
100
AcDbEntity
  8
尺寸标注
100
AcDbLine
 10
17922.23525633354
 20
-7708.042122053921
 30
0.0
 11
17922.23525633354
 21
-7818.042122053921
 31
0.0
  0
LINE
  5
DEEE
330
1F
100
AcDbEntity
  8
尺寸标注
100
AcDbLine
 10
17812.41528298501
 20
-7708.042122053921
 30
0.0
 11
17812.41528298501
 21
-7928.042122053921
 31
0.0
  0
LINE
  5
DEEF
330
1F
100
AcDbEntity
  8
尺寸标注
100
AcDbLine
 10
17727.41528298501
 20
-7763.042122053922
 30
0.0
 11
17727.41528298501
 21
-7873.042122053921
 31
0.0
  0
LINE
  5
DEF0
330
1F
100
AcDbEntity
  8
尺寸标注
100
AcDbLine
 10
17642.41528298501
 20
-7763.042122053922
 30
0.0
 11
17642.41528298501
 21
-7873.042122053921
 31
0.0
  0
LINE
  5
DEF1
330
1F
100
AcDbEntity
  8
尺寸标注
100
AcDbLine
 10
17557.41528298501
 20
-7708.042122053921
 30
0.0
 11
17557.41528298501
 21
-7818.042122053921
 31
0.0
  0
LINE
  5
DEF2
330
1F
100
AcDbEntity
  8
尺寸标注
100
AcDbLine
 10
17447.41528298501
 20
-7708.042122053921
 30
0.0
 11
17447.41528298501
 21
-7928.042122053921
 31
0.0
  0
LINE
  5
DEF3
330
1F
100
AcDbEntity
  8
尺寸标注
100
AcDbLine
 10
17297.41528298501
 20
-7708.042122053921
 30
0.0
 11
17297.41528298501
 21
-7928.042122053921
 31
0.0
  0
LINE
  5
DEF4
330
1F
100
AcDbEntity
  8
尺寸标注
100
AcDbLine
 10
17147.41528298501
 20
-7708.042122053921
 30
0.0
 11
17147.41528298501
 21
-7928.042122053921
 31
0.0
  0
LINE
  5
DEF5
330
1F
100
AcDbEntity
  8
尺寸标注
100
AcDbLine
 10
16997.41528298501
 20
-7708.042122053921
 30
0.0
 11
16997.41528298501
 21
-7928.042122053921
 31
0.0
  0
LINE
  5
DEF6
330
1F
100
AcDbEntity
  8
尺寸标注
100
AcDbLine
 10
16847.41528298501
 20
-7708.042122053921
 30
0.0
 11
16847.41528298501
 21
-7928.042122053921
 31
0.0
  0
LINE
  5
DEF7
330
1F
100
AcDbEntity
  8
尺寸标注
100
AcDbLine
 10
16697.41528298501
 20
-7708.042122053921
 30
0.0
 11
16697.41528298501
 21
-7928.042122053921
 31
0.0
  0
LINE
  5
DEF8
330
1F
100
AcDbEntity
  8
尺寸标注
100
AcDbLine
 10
15862.41528298501
 20
-7708.042122053921
 30
0.0
 11
15862.41528298501
 21
-7928.042122053921
 31
0.0
  0
LINE
  5
DEF9
330
1F
100
AcDbEntity
  8
尺寸标注
100
AcDbLine
 10
16012.41528298501
 20
-7708.042122053921
 30
0.0
 11
16012.41528298501
 21
-7928.042122053921
 31
0.0
  0
MTEXT
  5
DEFA
330
1F
100
AcDbEntity
  8
细实线
100
AcDbMText
 10
17836.36358587846
 20
-7710.452379035143
 30
0.0
 40
20.0
 41
81.98306981279893
 46
0.0
 71
     1
 72
     5
  1
名 称
 73
     1
 44
1.0
  0
MTEXT
  5
DEFB
330
1F
100
AcDbEntity
  8
细实线
100
AcDbMText
 10
17842.88357004859
 20
-7743.346997721274
 30
0.0
 40
15.0
 41
63.69926687426413
 46
0.0
 71
     1
 72
     5
  1
TITLE
  7
Arial
 73
     1
 44
1.0
  0
MTEXT
  5
DEFC
330
1F
100
AcDbEntity
  8
细实线
100
AcDbMText
 10
17837.01980513743
 20
-7766.820557928975
 30
0.0
 40
20.0
 41
81.98306981279893
 46
0.0
 71
     1
 72
     5
  1
编 号
 73
     1
 44
1.0
  0
MTEXT
  5
DEFD
330
1F
100
AcDbEntity
  8
细实线
100
AcDbMText
 10
17822.709466316
 20
-7797.744122631728
 30
0.0
 40
15.0
 41
133.4165091326795
 46
0.0
 71
     1
 72
     5
  1
PART NO.
  7
Arial
 73
     1
 44
1.0
  0
MTEXT
  5
DEFE
330
1F
100
AcDbEntity
  8
细实线
100
AcDbMText
 10
17748.17856906126
 20
-7780.350148083626
 30
0.0
 40
20.0
 41
60.43749660743924
 46
0.0
 71
     1
 72
     5
  1
1:10
 73
     1
 44
1.0
  0
MTEXT
  5
DEFF
330
1F
100
AcDbEntity
  8
细实线
100
AcDbMText
 10
17656.702686223
 20
-7767.378961944068
 30
0.0
 40
20.0
 41
81.98306981279893
 46
0.0
 71
     1
 72
     5
  1
比 例
 73
     1
 44
1.0
  0
MTEXT
  5
DF00
330
1F
100
AcDbEntity
  8
细实线
100
AcDbMText
 10
17654.28314238557
 20
-7797.596107385451
 30
0.0
 40
15.0
 41
133.4165091326795
 46
0.0
 71
     1
 72
     5
  1
SCALE
  7
Arial
 73
     1
 44
1.0
  0
MTEXT
  5
DF01
330
1F
100
AcDbEntity
  8
细实线
100
AcDbMText
 10
17451.89116042815
 20
-7743.352371523208
 30
0.0
 40
15.0
 41
133.4165091326795
 46
0.0
 71
     1
 72
     5
  1
MATERIAL
  7
Arial
 73
     1
 44
1.0
  0
MTEXT
  5
DF02
330
1F
100
AcDbEntity
  8
细实线
100
AcDbMText
 10
17467.75074452036
 20
-7710.235070027074
 30
0.0
 40
20.0
 41
81.98306981279893
 46
0.0
 71
     1
 72
     5
  1
材 料
 73
     1
 44
1.0
  0
MTEXT
  5
DF03
330
1F
100
AcDbEntity
  8
细实线
100
AcDbMText
 10
17002.99467471167
 20
-7797.701399164198
 30
0.0
 40
15.0
 41
165.376126472147
 46
0.0
 71
     1
 72
     5
  1
DESIGNED BY
  7
Arial
 73
     1
 44
1.0
  0
MTEXT
  5
DF04
330
1F
100
AcDbEntity
  8
细实线
100
AcDbMText
 10
17466.64192679372
 20
-7797.718883271262
 30
0.0
 40
15.0
 41
83.97931280403282
 46
0.0
 71
     1
 72
     5
  1
COLOR
  7
Arial
 73
     1
 44
1.0
  0
MTEXT
  5
DF05
330
1F
100
AcDbEntity
  8
细实线
100
AcDbMText
 10
17468.89373946823
 20
-7766.642710674465
 30
0.0
 40
20.0
 41
81.98306981279893
 46
0.0
 71
     1
 72
     5
  1
釉 色
 73
     1
 44
1.0
  0
MTEXT
  5
DF06
330
1F
100
AcDbEntity
  8
细实线
100
AcDbMText
 10
17653.79011809688
 20
-7822.963198759646
 30
0.0
 40
20.0
 41
81.98306981279893
 46
0.0
 71
     1
 72
     5
  1
单 位
 73
     1
 44
1.0
  0
MTEXT
  5
DF07
330
1F
100
AcDbEntity
  8
细实线
100
AcDbMText
 10
17665.02324319993
 20
-7853.180344201028
 30
0.0
 40
15.0
 41
55.86951145883358
 46
0.0
 71
     1
 72
     5
  1
UNIT
  7
Arial
 73
     1
 44
1.0
  0
MTEXT
  5
DF08
330
1F
100
AcDbEntity
  8
细实线
100
AcDbMText
 10
17752.61446429662
 20
-7831.45839846453
 30
0.0
 40
20.0
 41
81.98306981279893
 46
0.0
 71
     1
 72
     5
  1
mm
 73
     1
 44
1.0
  0
MTEXT
  5
DF09
330
1F
100
AcDbEntity
  8
细实线
100
AcDbMText
 10
17020.09390443872
 20
-7743.352371523208
 30
0.0
 40
15.0
 41
119.0776258146725
 46
0.0
 71
     1
 72
     5
  1
DRAWN BY
  7
Arial
 73
     1
 44
1.0
  0
MTEXT
  5
DF0A
330
1F
100
AcDbEntity
  8
细实线
100
AcDbMText
 10
17037.0749581207
 20
-7710.235070027074
 30
0.0
 40
20.0
 41
81.98306981279893
 46
0.0
 71
     1
 72
     5
  1
绘 图
 73
     1
 44
1.0
  0
MTEXT
  5
DF0B
330
1F
100
AcDbEntity
  8
细实线
100
AcDbMText
 10
17036.82556812957
 20
-7766.870592200122
 30
0.0
 40
20.0
 41
81.98306981279893
 46
0.0
 71
     1
 72
     5
  1
设 计
 73
     1
 44
1.0
  0
MTEXT
  5
DF0C
330
1F
100
AcDbEntity
  8
细实线
100
AcDbMText
 10
17020.66037231332
 20
-7852.598489677226
 30
0.0
 40
15.0
 41
110.7707852554558
 46
0.0
 71
     1
 72
     5
  1
CHECKED
  7
Arial
 73
     1
 44
1.0
  0
MTEXT
  5
DF0D
330
1F
100
AcDbEntity
  8
细实线
100
AcDbMText
 10
17037.2245593594
 20
-7824.08255227496
 30
0.0
 40
20.0
 41
81.98306981279893
 46
0.0
 71
     1
 72
     5
  1
审 核
 73
     1
 44
1.0
  0
MTEXT
  5
DF0E
330
1F
100
AcDbEntity
  8
细实线
100
AcDbMText
 10
17020.56430370429
 20
-7907.209044761268
 30
0.0
 40
15.0
 41
165.376126472147
 46
0.0
 71
     1
 72
     5
  1
APPROVAL
  7
Arial
 73
     1
 44
1.0
  0
MTEXT
  5
DF0F
330
1F
100
AcDbEntity
  8
细实线
100
AcDbMText
 10
17036.6645256951
 20
-7878.693107359002
 30
0.0
 40
20.0
 41
81.98306981279893
 46
0.0
 71
     1
 72
     5
  1
批 准
 73
     1
 44
1.0
  0
MTEXT
  5
DF10
330
1F
100
AcDbEntity
  8
细实线
100
AcDbMText
 10
16883.47571171509
 20
-7887.278813201736
 30
0.0
 40
20.0
 41
81.98306981279893
 46
0.0
 71
     1
 72
     5
  1
设 计
 73
     1
 44
1.0
  0
MTEXT
  5
DF11
330
1F
100
AcDbEntity
  8
细实线
100
AcDbMText
 10
16718.49418351315
 20
-7887.278813201736
 30
0.0
 40
20.0
 41
116.1860215155539
 46
0.0
 71
     1
 72
     5
  1
变更日期
 73
     1
 44
1.0
  0
MTEXT
  5
DF12
330
1F
100
AcDbEntity
  8
细实线
100
AcDbMText
 10
16313.44904030474
 20
-7887.278813201736
 30
0.0
 40
20.0
 41
119.8529598540954
 46
0.0
 71
     1
 72
     5
  1
变更内容
 73
     1
 44
1.0
  0
MTEXT
  5
DF13
330
1F
100
AcDbEntity
  8
细实线
100
AcDbMText
 10
15880.8254679332
 20
-7887.278813201736
 30
0.0
 40
20.0
 41
115.6743497155621
 46
0.0
 71
     1
 72
     5
  1
变更标记
 73
     1
 44
1.0
  0
LINE
  5
DF14
330
1F
100
AcDbEntity
  8
细实线
100
AcDbLine
 10
15910.36712673945
 20
-7866.188729440695
 30
0.0
 11
15960.36712673945
 21
-7866.188729440695
 31
0.0
  0
LINE
  5
DF15
330
1F
100
AcDbEntity
  8
细实线
100
AcDbLine
 10
15960.36712673945
 20
-7866.188729440695
 30
0.0
 11
15935.36712673945
 21
-7822.887459251472
 31
0.0
  0
LINE
  5
DF16
330
1F
100
AcDbEntity
  8
细实线
100
AcDbLine
 10
15910.36712673945
 20
-7866.188729440695
 30
0.0
 11
15935.36712673945
 21
-7822.887459251472
 31
0.0
  0
MTEXT
  5
DF17
330
1F
100
AcDbEntity
  8
细实线
100
AcDbMText
 10
15931.83616793796
 20
-7838.491897106774
 30
0.0
 40
20.0
 41
16.52873754638131
 46
0.0
 71
     1
 72
     5
  1
1
 73
     1
 44
1.0
  0
LINE
  5
DF18
330
1F
100
AcDbEntity
  8
细实线
100
AcDbLine
 10
15910.36712673945
 20
-7810.886812515239
 30
0.0
 11
15960.36712673945
 21
-7810.886812515239
 31
0.0
  0
LINE
  5
DF19
330
1F
100
AcDbEntity
  8
细实线
100
AcDbLine
 10
15960.36712673945
 20
-7810.886812515239
 30
0.0
 11
15935.36712673945
 21
-7767.585542326019
 31
0.0
  0
LINE
  5
DF1A
330
1F
100
AcDbEntity
  8
细实线
100
AcDbLine
 10
15910.36712673945
 20
-7810.886812515239
 30
0.0
 11
15935.36712673945
 21
-7767.585542326019
 31
0.0
  0
MTEXT
  5
DF1B
330
1F
100
AcDbEntity
  8
细实线
100
AcDbMText
 10
15929.70639753521
 20
-7783.189980181319
 30
0.0
 40
20.0
 41
16.52873754638131
 46
0.0
 71
     1
 72
     5
  1
2
 73
     1
 44
1.0
  0
LINE
  5
DF1C
330
1F
100
AcDbEntity
  8
细实线
100
AcDbLine
 10
15910.36712673945
 20
-7755.750729231952
 30
0.0
 11
15960.36712673945
 21
-7755.750729231952
 31
0.0
  0
LINE
  5
DF1D
330
1F
100
AcDbEntity
  8
细实线
100
AcDbLine
 10
15960.36712673945
 20
-7755.750729231952
 30
0.0
 11
15935.36712673945
 21
-7712.449459042729
 31
0.0
  0
LINE
  5
DF1E
330
1F
100
AcDbEntity
  8
细实线
100
AcDbLine
 10
15910.36712673945
 20
-7755.750729231952
 30
0.0
 11
15935.36712673945
 21
-7712.449459042729
 31
0.0
  0
MTEXT
  5
DF1F
330
1F
100
AcDbEntity
  8
细实线
100
AcDbMText
 10
15930.51890961158
 20
-7728.053896898031
 30
0.0
 40
20.0
 41
16.52873754638131
 46
0.0
 71
     1
 72
     5
  1
3
 73
     1
 44
1.0
  0
CIRCLE
  5
DF20
330
1F
100
AcDbEntity
  8
细实线
100
AcDbCircle
 10
17495.28864829066
 20
-7846.411883469966
 30
0.0
 40
10.53560991254562
  0
CIRCLE
  5
DF21
330
1F
100
AcDbEntity
  8
细实线
100
AcDbCircle
 10
17495.28864829066
 20
-7846.411883469966
 30
0.0
 40
18.2309956198369
  0
LINE
  5
DF22
330
1F
100
AcDbEntity
  8
中心线－圆
100
AcDbLine
 10
17468.88636937279
 20
-7846.411883469966
 30
0.0
 11
17522.0952295865
 21
-7846.411883469966
 31
0.0
  0
LINE
  5
DF23
330
1F
100
AcDbEntity
  8
中心线－圆
100
AcDbLine
 10
17532.19055233766
 20
-7846.411883469966
 30
0.0
 11
17619.06561073252
 21
-7846.411883469966
 31
0.0
  0
LINE
  5
DF24
330
1F
100
AcDbEntity
  8
细实线
100
AcDbLine
 10
17546.55049307118
 20
-7828.180887850129
 30
0.0
 11
17546.55049307118
 21
-7864.642879089803
 31
0.0
  0
LINE
  5
DF25
330
1F
100
AcDbEntity
  8
细实线
100
AcDbLine
 10
17605.80189565381
 20
-7835.876273557421
 30
0.0
 11
17605.80189565381
 21
-7856.947493382512
 31
0.0
  0
LINE
  5
DF26
330
1F
100
AcDbEntity
  8
细实线
100
AcDbLine
 10
17605.80189565381
 20
-7835.876273557421
 30
0.0
 11
17546.55049307118
 21
-7828.180887850129
 31
0.0
  0
LINE
  5
DF27
330
1F
100
AcDbEntity
  8
细实线
100
AcDbLine
 10
17605.80189565381
 20
-7856.947493382512
 30
0.0
 11
17546.55049307118
 21
-7864.642879089803
 31
0.0
  0
LINE
  5
DF28
330
1F
100
AcDbEntity
  8
中心线－圆
100
AcDbLine
 10
17495.28864829066
 20
-7822.249128530865
 30
0.0
 11
17495.28864829066
 21
-7870.351120572196
 31
0.0
  0
MTEXT
  5
DF29
330
1F
100
AcDbEntity
  8
细实线
100
AcDbMText
 10
17480.23372210673
 20
-7878.693107359002
 30
0.0
 40
20.0
 41
109.9484874789232
 46
0.0
 71
     1
 72
     5
  1
共 1 张
 73
     1
 44
1.0
  0
MTEXT
  5
DF2A
330
1F
100
AcDbEntity
  8
细实线
100
AcDbMText
 10
17687.12346130688
 20
-7878.693107359002
 30
0.0
 40
20.0
 41
109.9484874789232
 46
0.0
 71
     1
 72
     5
  1
第 1 张
 73
     1
 44
1.0
  0
MTEXT
  5
DF2B
330
1F
100
AcDbEntity
  8
细实线
100
AcDbMText
 10
17493.2618925938
 20
-7907.209044761268
 30
0.0
 40
15.0
 41
77.79676771954109
 46
0.0
 71
     1
 72
     5
  1
SHEET
  7
Arial
 73
     1
 44
1.0
  0
MTEXT
  5
DF2C
330
1F
100
AcDbEntity
  8
细实线
100
AcDbMText
 10
17722.042031877
 20
-7907.209044761268
 30
0.0
 40
15.0
 41
35.43638381874189
 46
0.0
 71
     1
 72
     5
  1
OF
  7
Arial
 73
     1
 44
1.0
  0
MTEXT
  5
DF2D
330
1F
100
AcDbEntity
  8
细实线
100
AcDbMText
 10
17860.57100358248
 20
-7896.616798708861
 30
0.0
 40
12.0
 41
400.8472070418575
 46
0.0
 71
     1
 72
     5
  1
AXENT(HEBEI)CERAMICS  INDUSTRY  CO.,LTD
  7
Arial
 73
     1
 44
1.0
  0
MTEXT
  5
DF2E
330
1F
100
AcDbEntity
  8
细实线
100
AcDbMText
 10
17990.11154443189
 20
-7831.772060064726
 30
0.0
 40
25.0
 41
108.4374073412546
 46
0.0
 71
     1
 72
     5
  1
AXENT
  7
Arial
 73
     1
 44
1.0
  0
MTEXT
  5
DF2F
330
1F
100
AcDbEntity
  8
细实线
100
AcDbMText
 10
17943.50021817026
 20
-7870.416797294613
 30
0.0
 40
15.0
 41
289.9454035681192
 46
0.0
 71
     1
 72
     5
  1
河北优胜洁具有限公司
 73
     1
 44
1.0
  0
LINE
  5
DF30
330
1F
100
AcDbEntity
  8
图框层
100
AcDbLine
 10
17942.62360966075
 20
-7864.107222951883
 30
0.0
 11
18153.74050804077
 21
-7864.107222951883
 31
0.0
  0
MTEXT
  5
DF31
330
1F
100
AcDbEntity
  8
细实线
100
AcDbMText
 10
17887.77456395512
 20
-5932.908895586059
 30
0.0
 40
20.0
 41
81.98306981279893
 46
0.0
 71
     1
 72
     5
  1
版 本
 73
     1
 44
1.0
  0
MTEXT
  5
DF32
330
1F
100
AcDbEntity
  8
细实线
100
AcDbMText
 10
17902.35670721662
 20
-5963.832460288812
 30
0.0
 40
15.0
 41
56.71405420393057
 46
0.0
 71
     1
 72
     5
  1
REV.
  7
Arial
 73
     1
 44
1.0
  0
MTEXT
  5
DF33
330
1F
100
AcDbEntity
  8
细实线
100
AcDbMText
 10
18144.18581988426
 20
-5963.789267850703
 30
0.0
 40
15.0
 41
119.0776258146725
 46
0.0
 71
     1
 72
     5
  1
DRAWN BY
  7
Arial
 73
     1
 44
1.0
  0
MTEXT
  5
DF34
330
1F
100
AcDbEntity
  8
细实线
100
AcDbMText
 10
18161.16687356624
 20
-5930.671966354569
 30
0.0
 40
20.0
 41
81.98306981279893
 46
0.0
 71
     1
 72
     5
  1
绘 图
 73
     1
 44
1.0
  0
MTEXT
  5
DF35
330
1F
100
AcDbEntity
  8
细实线
100
AcDbMText
 10
18018.97157184755
 20
-5963.789267850703
 30
0.0
 40
15.0
 41
70.80223729161662
 46
0.0
 71
     1
 72
     5
  1
DATE
  7
Arial
 73
     1
 44
1.0
  0
MTEXT
  5
DF36
330
1F
100
AcDbEntity
  8
细实线
100
AcDbMText
 10
18014.6098118385
 20
-5930.671966354569
 30
0.0
 40
20.0
 41
81.98306981279893
 46
0.0
 71
     1
 72
     5
  1
日 期
 73
     1
 44
1.0
  0
MTEXT
  5
DF37
330
1F
100
AcDbEntity
  8
细实线
100
AcDbMText
 10
15403.44227368058
 20
-7496.814551970212
 30
0.0
 40
15.0
 41
72.81743765731881
 46
0.0
 71
     1
 72
     5
  1
TYPE
  7
Arial
 73
     1
 44
1.0
  0
MTEXT
  5
DF38
330
1F
100
AcDbEntity
  8
细实线
100
AcDbMText
 10
15369.8451700697
 20
-7465.958034259535
 30
0.0
 40
18.0
 41
145.0882835981356
 46
0.0
 71
     1
 72
     5
  1
生产线类型
 73
     1
 44
1.0
  0
MTEXT
  5
DF39
330
1F
100
AcDbEntity
  8
细实线
100
AcDbMText
 10
17581.12340016749
 20
-7777.043212731033
 30
0.0
 40
20.0
 41
65.72054479283906
 46
0.0
 71
     1
 72
     5
  1
T白
 73
     1
 44
1.0
  0
MTEXT
  5
DF3A
330
1F
100
AcDbEntity
  8
细实线
100
AcDbMText
 10
17999.69367539468
 20
-7725.798772161742
 30
0.0
 40
20.0
 41
227.628707432533
 46
0.0
 71
     1
 72
     5
  1
多丽丝台盆450
 73
     1
 44
1.0
  0
MTEXT
  5
DF3B
330
1F
100
AcDbEntity
  8
细实线
100
AcDbMText
 10
17661.37634279825
 20
-7725.798772161742
 30
0.0
 40
20.0
 41
130.3326740269949
 46
0.0
 71
     1
 72
     5
  1
新VC
 73
     1
 44
1.0
  0
MTEXT
  5
DF3C
330
1F
100
AcDbEntity
  8
细实线
100
AcDbMText
 10
17942.87119500922
 20
-7934.452902542362
 30
0.0
 40
30.0
 41
323.9793780583714
 46
0.0
 71
     1
 72
     5
  1
HA-BZ-7.5-013
 73
     1
 44
1.0
  0
LINE
  5
DF3D
330
1F
100
AcDbEntity
  8
0
  6
Continuous
 62
     7
100
AcDbLine
 10
17103.55777123567
 20
-6221.899144566614
 30
0.0
 11
17103.67632408217
 21
-6223.047264720914
 31
0.0
  0
LINE
  5
DF3E
330
1F
100
AcDbEntity
  8
0
  6
Continuous
 62
     7
100
AcDbLine
 10
17104.03152803897
 20
-6226.913768239215
 30
0.0
 11
17103.55772610547
 21
-6221.898666890115
 31
0.0
  0
LINE
  5
DF3F
330
1F
100
AcDbEntity
  8
0
  6
Continuous
 62
     7
100
AcDbLine
 10
17109.61286952407
 20
-6248.140511455815
 30
0.0
 11
17106.08655190617
 21
-6238.194571403415
 31
0.0
  0
LWPOLYLINE
  5
DF40
330
1F
100
AcDbEntity
  8
0
  6
Continuous
 62
     7
100
AcDbPolyline
 90
        3
 70
     0
 43
0.0
 10
17106.08655190617
 20
-6238.194571403415
 10
17104.14991943087
 20
-6228.060522135114
 10
17104.03157306267
 20
-6226.914244787815
  0
LWPOLYLINE
  5
DF41
330
1F
100
AcDbEntity
  8
0
  6
Continuous
 62
     7
100
AcDbPolyline
 90
        8
 70
     0
 43
0.0
 10
17103.67632408217
 20
-6223.047264720914
 10
17105.61315569487
 20
-6233.180963192914
 10
17109.13953415807
 20
-6243.126471323114
 10
17114.24066189617
 20
-6252.793945657514
 10
17120.73309985977
 20
-6261.915468284715
 10
17128.64585126627
 20
-6270.606140781614
 10
17138.81098131397
 20
-6279.512855275714
 10
17152.66521131257
 20
-6289.120241697714
  0
LINE
  5
DF42
330
1F
100
AcDbEntity
  8
0
  6
Continuous
 62
     7
100
AcDbLine
 10
17129.11881646267
 20
-6275.620419847214
 30
0.0
 11
17121.20650237957
 21
-6266.930075809614
 31
0.0
  0
LINE
  5
DF43
330
1F
100
AcDbEntity
  8
0
  6
Continuous
 62
     7
100
AcDbLine
 10
17121.20650237957
 20
-6266.930075809614
 30
0.0
 11
17114.71409924747
 21
-6257.808457825515
 31
0.0
  0
LINE
  5
DF44
330
1F
100
AcDbEntity
  8
0
  6
Continuous
 62
     7
100
AcDbLine
 10
17114.71409924747
 20
-6257.808457825515
 30
0.0
 11
17109.61286952407
 21
-6248.140511455815
 31
0.0
  0
LINE
  5
DF45
330
1F
100
AcDbEntity
  8
0
  6
Continuous
 62
     7
100
AcDbLine
 10
17147.82479152097
 20
-6291.075245911614
 30
0.0
 11
17154.98781702337
 21
-6323.817535539514
 31
0.0
  0
LINE
  5
DF46
330
1F
100
AcDbEntity
  8
0
  6
Continuous
 62
     7
100
AcDbLine
 10
17165.56652739667
 20
-6301.077193167714
 30
0.0
 11
17153.13901324607
 21
-6294.135343046914
 31
0.0
  0
LWPOLYLINE
  5
DF47
330
1F
100
AcDbEntity
  8
0
  6
Continuous
 62
     7
100
AcDbPolyline
 90
        3
 70
     0
 43
0.0
 10
17153.13901324607
 20
-6294.135343046914
 10
17139.28368975207
 20
-6284.527098115715
 10
17129.11881646267
 20
-6275.620419847214
  0
LINE
  5
DF48
330
1F
100
AcDbEntity
  8
0
  6
Continuous
 62
     7
100
AcDbLine
 10
17144.45074958117
 20
-6224.182127520315
 30
0.0
 11
17144.45017097227
 21
-6224.179482381214
 31
0.0
  0
LWPOLYLINE
  5
DF49
330
1F
100
AcDbEntity
  8
0
  6
Continuous
 62
     7
100
AcDbPolyline
 90
       31
 70
     0
 43
0.0
 10
17144.45017097227
 20
-6224.179482381214
 10
17143.49751990817
 20
-6218.330417823715
 10
17143.24633927767
 20
-6209.830038624915
 10
17144.31290874777
 20
-6201.256311039914
 10
17146.68732414627
 20
-6192.683070353615
 10
17150.35751339297
 20
-6184.154825148614
 10
17155.29954897017
 20
-6175.735386449915
 10
17161.43236930297
 20
-6167.543580478315
 10
17168.73783327137
 20
-6159.585392359115
 10
17177.42263523337
 20
-6151.700222885915
 10
17187.62801040247
 20
-6143.897325562814
 10
17199.26450584147
 20
-6136.367844806015
 10
17212.15350422027
 20
-6129.296671111614
 10
17226.04781060757
 20
-6122.841113739414
 10
17240.64340843827
 20
-6117.123410006714
 10
17255.59335672277
 20
-6112.225226127414
 10
17270.54318819987
 20
-6108.179371604714
 10
17285.48101290587
 20
-6104.908545695814
 10
17300.71320735087
 20
-6102.312913762615
 10
17316.23403784947
 20
-6100.400192667914
 10
17331.82348714287
 20
-6099.203538574315
 10
17347.36388087007
 20
-6098.729872038815
 10
17362.77665256677
 20
-6098.981313405914
 10
17377.92982417967
 20
-6099.956175566615
 10
17392.70690276197
 20
-6101.645210782514
 10
17407.08466548717
 20
-6104.049816649615
 10
17420.92354326627
 20
-6107.155070766014
 10
17433.83471113327
 20
-6110.852621454714
 10
17446.00152239467
 20
-6115.169162098915
 10
17458.27051828957
 20
-6120.520108939214
 10
17471.24199219717
 20
-6127.592342994114
  0
LWPOLYLINE
  5
DF4A
330
1F
100
AcDbEntity
  8
0
  6
Continuous
 62
     7
100
AcDbPolyline
 90
       22
 70
     0
 43
0.0
 10
17152.66521131257
 20
-6289.120241697714
 10
17165.09376291587
 20
-6296.062618745114
 10
17178.67170646607
 20
-6302.329081438014
 10
17193.30219936897
 20
-6307.875359288114
 10
17208.88141969157
 20
-6312.662507803514
 10
17225.29946310117
 20
-6316.657063380814
 10
17242.44090707127
 20
-6319.831091012815
 10
17260.18514060057
 20
-6322.162260505815
 10
17278.40685675657
 20
-6323.634035926414
 10
17296.97686729667
 20
-6324.235910796814
 10
17315.76325441777
 20
-6323.963590777014
 10
17334.63322970747
 20
-6322.819002511114
 10
17353.45375046367
 20
-6320.810167794314
 10
17372.09143629027
 20
-6317.951247972314
 10
17390.41388413747
 20
-6314.262518967215
 10
17408.29093547897
 20
-6309.770216678715
 10
17425.59636047857
 20
-6304.506105871115
 10
17442.20909933197
 20
-6298.506909176815
 10
17458.01226990107
 20
-6291.814510325814
 10
17472.89307488427
 20
-6284.476298677515
 10
17486.74543720517
 20
-6276.544286567414
 10
17499.47147867407
 20
-6268.074174733514
  0
HATCH
  5
DF4B
330
1F
100
AcDbEntity
  8
虚线
100
AcDbHatch
 10
0.0
 20
0.0
 30
0.0
210
0.0
220
0.0
230
1.0
  2
CROSS
 70
     0
 71
     1
 91
        1
 92
        1
 93
       74
 72
     1
 10
17156.85527776067
 20
-6281.748227652514
 11
17168.95266483187
 21
-6288.505603463114
 72
     1
 10
17168.95266483187
 20
-6288.505603463114
 11
17182.16877882317
 21
-6294.605039927715
 72
     1
 10
17182.16877882317
 20
-6294.605039927715
 11
17196.40934951187
 21
-6300.003453160214
 72
     1
 10
17196.40934951187
 20
-6300.003453160214
 11
17211.57331321807
 21
-6304.662945295115
 72
     1
 10
17211.57331321807
 20
-6304.662945295115
 11
17227.55368891997
 21
-6308.550953237014
 72
     1
 10
17227.55368891997
 20
-6308.550953237014
 11
17244.23812709287
 21
-6311.640294841414
 72
     1
 10
17244.23812709287
 20
-6311.640294841414
 11
17261.50923057587
 21
-6313.909242963815
 72
     1
 10
17261.50923057587
 20
-6313.909242963815
 11
17279.24503410147
 21
-6315.341709713614
 72
     1
 10
17279.24503410147
 20
-6315.341709713614
 11
17297.31979722727
 21
-6315.927475166715
 72
     1
 10
17297.31979722727
 20
-6315.927475166715
 11
17315.60512540397
 21
-6315.662364926414
 72
     1
 10
17315.60512540397
 20
-6315.662364926414
 11
17333.97177790627
 21
-6314.548258533015
 72
     1
 10
17333.97177790627
 20
-6314.548258533015
 11
17352.29026668967
 21
-6312.592967101615
 72
     1
 10
17352.29026668967
 20
-6312.592967101615
 11
17370.43077678897
 21
-6309.810276394315
 72
     1
 10
17370.43077678897
 20
-6309.810276394315
 11
17388.26444555287
 21
-6306.219922335614
 72
     1
 10
17388.26444555287
 20
-6306.219922335614
 11
17405.66459535147
 21
-6301.847440519814
 72
     1
 10
17405.66459535147
 20
-6301.847440519814
 11
17422.50837166657
 21
-6296.723746771814
 72
     1
 10
17422.50837166657
 20
-6296.723746771814
 11
17438.67794918017
 21
-6290.884582274015
 72
     1
 10
17438.67794918017
 20
-6290.884582274015
 11
17454.05956883757
 21
-6284.370710692015
 72
     1
 10
17454.05956883757
 20
-6284.370710692015
 11
17468.54344859117
 21
-6277.228252585814
 72
     1
 10
17468.54344859117
 20
-6277.228252585814
 11
17482.02634414787
 21
-6269.507827953514
 72
     1
 10
17482.02634414787
 20
-6269.507827953514
 11
17494.41298795007
 21
-6261.263647363414
 72
     1
 10
17494.41298795007
 20
-6261.263647363414
 11
17505.61528696057
 21
-6252.553877375014
 72
     1
 10
17505.61528696057
 20
-6252.553877375014
 11
17515.55294274267
 21
-6243.440512704815
 72
     1
 10
17515.55294274267
 20
-6243.440512704815
 11
17524.15528843307
 21
-6233.987942768215
 72
     1
 10
17524.15528843307
 20
-6233.987942768215
 11
17531.36131129417
 21
-6224.262539468115
 72
     1
 10
17531.36131129417
 20
-6224.262539468115
 11
17537.11892652487
 21
-6214.333819591415
 72
     1
 10
17537.11892652487
 20
-6214.333819591415
 11
17541.38655137187
 21
-6204.273182628814
 72
     1
 10
17541.38655137187
 20
-6204.273182628814
 11
17544.13454325917
 21
-6194.149048378415
 72
     1
 10
17544.13454325917
 20
-6194.149048378415
 11
17545.34219521637
 21
-6184.031424962314
 72
     1
 10
17545.34219521637
 20
-6184.031424962314
 11
17545.00015059397
 21
-6174.004352305615
 72
     1
 10
17545.00015059397
 20
-6174.004352305615
 11
17543.11486298757
 21
-6164.140657178814
 72
     1
 10
17543.11486298757
 20
-6164.140657178814
 11
17539.68232592487
 21
-6154.460110714615
 72
     1
 10
17539.68232592487
 20
-6154.460110714615
 11
17534.71692203567
 21
-6145.050157119214
 72
     1
 10
17534.71692203567
 20
-6145.050157119214
 11
17528.39719210537
 21
-6136.171595740414
 72
     1
 10
17528.39719210537
 20
-6136.171595740414
 11
17520.69482536897
 21
-6127.712337447414
 72
     1
 10
17520.69482536897
 20
-6127.712337447414
 11
17510.79957451047
 21
-6119.042512221415
 72
     1
 10
17510.79957451047
 20
-6119.042512221415
 11
17497.31766961727
 21
-6109.693600836314
 72
     1
 10
17497.31766961727
 20
-6109.693600836314
 11
17485.22028254607
 21
-6102.936225025715
 72
     1
 10
17485.22028254607
 20
-6102.936225025715
 11
17472.00416855467
 21
-6096.836788561115
 72
     1
 10
17472.00416855467
 20
-6096.836788561115
 11
17457.76359786607
 21
-6091.438375328614
 72
     1
 10
17457.76359786607
 20
-6091.438375328614
 11
17442.59963415977
 21
-6086.778883193714
 72
     1
 10
17442.59963415977
 20
-6086.778883193714
 11
17426.61925845797
 21
-6082.890875251814
 72
     1
 10
17426.61925845797
 20
-6082.890875251814
 11
17409.93482028507
 21
-6079.801533647414
 72
     1
 10
17409.93482028507
 20
-6079.801533647414
 11
17392.66371680197
 21
-6077.532585525114
 72
     1
 10
17392.66371680197
 20
-6077.532585525114
 11
17374.92791327637
 21
-6076.100118775214
 72
     1
 10
17374.92791327637
 20
-6076.100118775214
 11
17356.85315015067
 21
-6075.514353322114
 72
     1
 10
17356.85315015067
 20
-6075.514353322114
 11
17338.56782197387
 21
-6075.779463562414
 72
     1
 10
17338.56782197387
 20
-6075.779463562414
 11
17320.20116947167
 21
-6076.893569955914
 72
     1
 10
17320.20116947167
 20
-6076.893569955914
 11
17301.88268068827
 21
-6078.848861387314
 72
     1
 10
17301.88268068827
 20
-6078.848861387314
 11
17283.74217058887
 21
-6081.631552094514
 72
     1
 10
17283.74217058887
 20
-6081.631552094514
 11
17265.90850182497
 21
-6085.221906153214
 72
     1
 10
17265.90850182497
 20
-6085.221906153214
 11
17248.50835202637
 21
-6089.594387969015
 72
     1
 10
17248.50835202637
 20
-6089.594387969015
 11
17231.66457571127
 21
-6094.718081717114
 72
     1
 10
17231.66457571127
 20
-6094.718081717114
 11
17215.49499819777
 21
-6100.557246214814
 72
     1
 10
17215.49499819777
 20
-6100.557246214814
 11
17200.11337854037
 21
-6107.071117796814
 72
     1
 10
17200.11337854037
 20
-6107.071117796814
 11
17185.62949878677
 21
-6114.213575903015
 72
     1
 10
17185.62949878677
 20
-6114.213575903015
 11
17172.14660323007
 21
-6121.934000535414
 72
     1
 10
17172.14660323007
 20
-6121.934000535414
 11
17159.75995942787
 21
-6130.178181125415
 72
     1
 10
17159.75995942787
 20
-6130.178181125415
 11
17148.55766041737
 21
-6138.887951113815
 72
     1
 10
17148.55766041737
 20
-6138.887951113815
 11
17138.62000463517
 21
-6148.001315784014
 72
     1
 10
17138.62000463517
 20
-6148.001315784014
 11
17130.01765894477
 21
-6157.453885720714
 72
     1
 10
17130.01765894477
 20
-6157.453885720714
 11
17122.81163608377
 21
-6167.179289020714
 72
     1
 10
17122.81163608377
 20
-6167.179289020714
 11
17117.05402085297
 21
-6177.108008897414
 72
     1
 10
17117.05402085297
 20
-6177.108008897414
 11
17112.78639600607
 21
-6187.168645860015
 72
     1
 10
17112.78639600607
 20
-6187.168645860015
 11
17110.03840411877
 21
-6197.292780110414
 72
     1
 10
17110.03840411877
 20
-6197.292780110414
 11
17108.83075216147
 21
-6207.410403526615
 72
     1
 10
17108.83075216147
 20
-6207.410403526615
 11
17109.17279678387
 21
-6217.437476183214
 72
     1
 10
17109.17279678387
 20
-6217.437476183214
 11
17111.05808439027
 21
-6227.301171310015
 72
     1
 10
17111.05808439027
 20
-6227.301171310015
 11
17114.49062145297
 21
-6236.981717774314
 72
     1
 10
17114.49062145297
 20
-6236.981717774314
 11
17119.45602534217
 21
-6246.391671369615
 72
     1
 10
17119.45602534217
 20
-6246.391671369615
 11
17125.77575527247
 21
-6255.270232748515
 72
     1
 10
17125.77575527247
 20
-6255.270232748515
 11
17133.47812200887
 21
-6263.729491041515
 72
     1
 10
17133.47812200887
 20
-6263.729491041515
 11
17143.37337286737
 21
-6272.399316267514
 72
     1
 10
17143.37337286737
 20
-6272.399316267514
 11
17156.85527776067
 21
-6281.748227652514
 97
        3
330
DF4C
330
DF60
330
DF5F
 75
     0
 76
     1
 52
0.0
 41
5.0
 77
     0
 78
     2
 53
0.0
 43
6893.329463835879
 44
1698.622345512834
 45
31.75
 46
31.75
 79
     2
 49
15.875
 49
-47.625
 53
90.0
 43
6901.266963835879
 44
1690.684845512835
 45
-31.75
 46
31.75
 79
     2
 49
15.875
 49
-47.625
 98
        1
 10
6893.329463835879
 20
1698.622345512834
  0
LWPOLYLINE
  5
DF4C
102
{ACAD_REACTORS
330
DF4B
102
}
330
1F
100
AcDbEntity
  8
0
  6
Continuous
 62
     7
100
AcDbPolyline
 90
       37
 70
     0
 43
0.0
 10
17156.85527776067
 20
-6281.748227652514
 10
17168.95266483187
 20
-6288.505603463114
 10
17182.16877882317
 20
-6294.605039927715
 10
17196.40934951187
 20
-6300.003453160214
 10
17211.57331321807
 20
-6304.662945295115
 10
17227.55368891997
 20
-6308.550953237014
 10
17244.23812709287
 20
-6311.640294841414
 10
17261.50923057587
 20
-6313.909242963815
 10
17279.24503410147
 20
-6315.341709713614
 10
17297.31979722727
 20
-6315.927475166715
 10
17315.60512540397
 20
-6315.662364926414
 10
17333.97177790627
 20
-6314.548258533015
 10
17352.29026668967
 20
-6312.592967101615
 10
17370.43077678897
 20
-6309.810276394315
 10
17388.26444555287
 20
-6306.219922335614
 10
17405.66459535147
 20
-6301.847440519814
 10
17422.50837166657
 20
-6296.723746771814
 10
17438.67794918017
 20
-6290.884582274015
 10
17454.05956883757
 20
-6284.370710692015
 10
17468.54344859117
 20
-6277.228252585814
 10
17482.02634414787
 20
-6269.507827953514
 10
17494.41298795007
 20
-6261.263647363414
 10
17505.61528696057
 20
-6252.553877375014
 10
17515.55294274267
 20
-6243.440512704815
 10
17524.15528843307
 20
-6233.987942768215
 10
17531.36131129417
 20
-6224.262539468115
 10
17537.11892652487
 20
-6214.333819591415
 10
17541.38655137187
 20
-6204.273182628814
 10
17544.13454325917
 20
-6194.149048378415
 10
17545.34219521637
 20
-6184.031424962314
 10
17545.00015059397
 20
-6174.004352305615
 10
17543.11486298757
 20
-6164.140657178814
 10
17539.68232592487
 20
-6154.460110714615
 10
17534.71692203567
 20
-6145.050157119214
 10
17528.39719210537
 20
-6136.171595740414
 10
17520.69482536897
 20
-6127.712337447414
 10
17510.79957451047
 20
-6119.042512221415
  0
LWPOLYLINE
  5
DF4D
330
1F
100
AcDbEntity
  8
0
  6
Continuous
 62
     7
100
AcDbPolyline
 90
       37
 70
     0
 43
0.0
 10
17178.71688418477
 20
-6270.700339178315
 10
17166.93336756037
 20
-6262.526129249214
 10
17158.27815314157
 20
-6254.932923536115
 10
17151.54680376407
 20
-6247.521327708515
 10
17146.04190477577
 20
-6239.756972549314
 10
17141.72136896177
 20
-6231.519734175314
 10
17138.74629308187
 20
-6223.042386951615
 10
17137.13168540487
 20
-6214.409768064615
 10
17136.87223685747
 20
-6205.634871324814
 10
17137.97311701607
 20
-6196.784246404114
 10
17140.42410350957
 20
-6187.934117110414
 10
17144.21273450467
 20
-6179.130432132815
 10
17149.31431258187
 20
-6170.439061011116
 10
17155.64515729257
 20
-6161.982673175315
 10
17163.18653518437
 20
-6153.767454416615
 10
17172.15182232097
 20
-6145.627612049415
 10
17182.68682514687
 20
-6137.572695604915
 10
17194.69919664527
 20
-6129.800032195814
 10
17208.00453622307
 20
-6122.500493891915
 10
17222.34764553657
 20
-6115.836477606714
 10
17237.41466712937
 20
-6109.934171321715
 10
17252.84743612307
 20
-6104.877876365114
 10
17268.28005655787
 20
-6100.701447407415
 10
17283.70031939647
 20
-6097.325071251514
 10
17299.42450327147
 20
-6094.645696655113
 10
17315.44662452807
 20
-6092.671303884515
 10
17331.53954445577
 20
-6091.436118307414
 10
17347.58180957087
 20
-6090.947280400815
 10
17363.49230860947
 20
-6091.206978863914
 10
17379.13479014977
 20
-6092.213470056115
 10
17394.38901840637
 20
-6093.957208028214
 10
17409.23101258777
 20
-6096.439635858414
 10
17423.51660715157
 20
-6099.645328273514
 10
17436.84450459967
 20
-6103.462435258214
 10
17449.40431288107
 20
-6107.918657398214
 10
17462.07018910877
 20
-6113.443036567915
 10
17475.45606319307
 20
-6120.741489310614
  0
LWPOLYLINE
  5
DF4E
330
1F
100
AcDbEntity
  8
0
  6
Continuous
 62
     7
100
AcDbPolyline
 90
        5
 70
     0
 43
0.0
 10
17182.33159682357
 20
-6270.603231617215
 10
17168.25015989707
 20
-6260.490249254715
 10
17157.12523110847
 20
-6249.303430278615
 10
17149.12293014277
 20
-6237.165509382814
 10
17144.45074956887
 20
-6224.182127463914
  0
LINE
  5
DF4F
330
1F
100
AcDbEntity
  8
0
  6
Continuous
 62
     7
100
AcDbLine
 10
17192.10275826917
 20
-6277.998791920914
 30
0.0
 11
17178.71688418477
 21
-6270.700339178315
 31
0.0
  0
LWPOLYLINE
  5
DF50
330
1F
100
AcDbEntity
  8
0
  6
Continuous
 62
     7
100
AcDbPolyline
 90
        5
 70
     0
 43
0.0
 10
17466.64690043317
 20
-6145.149071646915
 10
17466.00311629117
 20
-6145.558917386615
 10
17464.79183256467
 20
-6146.992509974214
 10
17464.03282488247
 20
-6148.995162541814
 10
17463.77041130617
 20
-6151.450642787114
  0
LWPOLYLINE
  5
DF51
330
1F
100
AcDbEntity
  8
0
  6
Continuous
 62
     7
100
AcDbPolyline
 90
        5
 70
     0
 43
0.0
 10
17475.59511094307
 20
-6166.397147925515
 10
17476.17444521017
 20
-6166.019980867314
 10
17477.24199911647
 20
-6164.662062540614
 10
17477.89949911597
 20
-6162.713574114214
 10
17478.12563991567
 20
-6160.270409742913
  0
LINE
  5
DF52
330
1F
100
AcDbEntity
  8
0
  6
Continuous
 62
     7
100
AcDbLine
 10
17317.82946116327
 20
-6298.722377311015
 30
0.0
 11
17317.42096520287
 21
-6298.978226402415
 31
0.0
  0
LWPOLYLINE
  5
DF53
330
1F
100
AcDbEntity
  8
0
  6
Continuous
 62
     7
100
AcDbPolyline
 90
       14
 70
     0
 43
0.0
 10
17464.72196227537
 20
-6237.902051623614
 10
17447.17354306417
 20
-6228.870677967015
 10
17426.92785994837
 20
-6221.640250847115
 10
17404.39794682837
 20
-6216.373222532715
 10
17380.21820731347
 20
-6213.229899293414
 10
17354.96555886607
 20
-6212.285322685415
 10
17329.27965183357
 20
-6213.564029167815
 10
17303.78033372237
 20
-6217.035387679015
 10
17279.11024296917
 20
-6222.612263742314
 10
17255.86665020077
 20
-6230.159886700814
 10
17234.63411719147
 20
-6239.488821866415
 10
17215.92846841117
 20
-6250.372682651015
 10
17200.21855839667
 20
-6262.539244818315
 10
17189.28200929457
 20
-6274.197762304314
  0
LINE
  5
DF54
330
1F
100
AcDbEntity
  8
0
  6
Continuous
 62
     7
100
AcDbLine
 10
17477.35751786997
 20
-6247.198697354015
 30
0.0
 11
17464.72196227537
 21
-6237.902051623614
 31
0.0
  0
LWPOLYLINE
  5
DF55
330
1F
100
AcDbEntity
  8
0
  6
Continuous
 62
     7
100
AcDbPolyline
 90
        7
 70
     0
 43
0.0
 10
17317.82946116327
 20
-6298.722377311015
 10
17324.42328739757
 20
-6296.046053358314
 10
17331.80542334707
 20
-6294.245041877615
 10
17339.54684610337
 20
-6293.424011109614
 10
17347.19765231477
 20
-6293.630676378414
 10
17354.31320493397
 20
-6294.853027049614
 10
17356.13138238497
 20
-6295.491933096014
  0
LWPOLYLINE
  5
DF56
330
1F
100
AcDbEntity
  8
0
  6
Continuous
 62
     7
100
AcDbPolyline
 90
        4
 70
     0
 43
0.0
 10
17471.23512955867
 20
-6145.644235198414
 10
17469.35308888667
 20
-6144.854431859915
 10
17467.54958253277
 20
-6144.829859693315
 10
17466.64690043317
 20
-6145.149071646915
  0
LWPOLYLINE
  5
DF57
330
1F
100
AcDbEntity
  8
0
  6
Continuous
 62
     7
100
AcDbPolyline
 90
        4
 70
     0
 43
0.0
 10
17471.22747071657
 20
-6165.790508510814
 10
17473.08016032387
 20
-6166.601793788714
 10
17474.77450643537
 20
-6166.676448054214
 10
17475.59511094307
 20
-6166.397147925515
  0
LWPOLYLINE
  5
DF58
330
1F
100
AcDbEntity
  8
0
  6
Continuous
 62
     7
100
AcDbPolyline
 90
        7
 70
     0
 43
0.0
 10
17463.77041130617
 20
-6151.450642787114
 10
17464.03264850017
 20
-6154.199229673814
 10
17464.79762818267
 20
-6157.035022666614
 10
17466.00683907527
 20
-6159.785850295315
 10
17467.55148477027
 20
-6162.249612157914
 10
17469.34152445877
 20
-6164.306616312814
 10
17471.22747071657
 20
-6165.790508510814
  0
LWPOLYLINE
  5
DF59
330
1F
100
AcDbEntity
  8
0
  6
Continuous
 62
     7
100
AcDbPolyline
 90
        7
 70
     0
 43
0.0
 10
17478.12563991567
 20
-6160.270409742913
 10
17477.90224286637
 20
-6157.507991047214
 10
17477.24077014567
 20
-6154.617721815514
 10
17476.17056978147
 20
-6151.788711969814
 10
17474.76355632557
 20
-6149.250101662614
 10
17473.07496824367
 20
-6147.139482335014
 10
17471.23512955867
 20
-6145.644235198414
  0
LWPOLYLINE
  5
DF5A
330
1F
100
AcDbEntity
  8
0
  6
Continuous
 62
     7
100
AcDbPolyline
 90
        9
 70
     0
 43
0.0
 10
17499.47147867407
 20
-6268.074174733514
 10
17510.98069279187
 20
-6259.125729372314
 10
17521.19058336767
 20
-6249.762650191414
 10
17530.02855369557
 20
-6240.051095673214
 10
17537.43192773287
 20
-6230.059260625514
 10
17543.34720300537
 20
-6219.858572305515
 10
17547.73167088427
 20
-6209.522389418115
 10
17550.55489276607
 20
-6199.121004441415
 10
17551.79560940707
 20
-6188.726347628715
  0
LWPOLYLINE
  5
DF5B
330
1F
100
AcDbEntity
  8
0
  6
Continuous
 62
     7
100
AcDbPolyline
 90
        9
 70
     0
 43
0.0
 10
17471.24199219717
 20
-6127.592342994114
 10
17482.65933298737
 20
-6135.512765389615
 10
17491.04304111327
 20
-6142.868127210215
 10
17497.56346178857
 20
-6150.047804162015
 10
17502.89595008377
 20
-6157.569324837814
 10
17507.08112453657
 20
-6165.548922131215
 10
17509.96293389797
 20
-6173.761075029014
 10
17511.52685759607
 20
-6182.123633017114
 10
17511.82097935797
 20
-6189.474504138614
  0
LINE
  5
DF5C
330
1F
100
AcDbEntity
  8
0
  6
Continuous
 62
     7
100
AcDbLine
 10
17511.82097935797
 20
-6189.474504138614
 30
0.0
 11
17511.82097113887
 21
-6189.474808666915
 31
0.0
  0
LWPOLYLINE
  5
DF5D
330
1F
100
AcDbEntity
  8
0
  6
Continuous
 62
     7
100
AcDbPolyline
 90
       17
 70
     0
 43
0.0
 10
17511.82097113987
 20
-6189.474808629615
 10
17509.18489450617
 20
-6204.679333119615
 10
17502.29200287037
 20
-6219.623520472515
 10
17491.37195293877
 20
-6234.105816917914
 10
17476.65069058577
 20
-6247.859045421915
 10
17458.40541696317
 20
-6260.581843502514
 10
17437.01150052417
 20
-6271.954990115215
 10
17412.95662775177
 20
-6281.670857442115
 10
17386.81503455267
 20
-6289.463970994415
 10
17359.22551925357
 20
-6295.123519979415
 10
17330.85475379887
 20
-6298.501574204614
 10
17302.40051085977
 20
-6299.511176026014
 10
17274.56397377087
 20
-6298.131699441814
 10
17248.01879079177
 20
-6294.407976532014
 10
17223.41894704037
 20
-6288.452368636515
 10
17201.35097674187
 20
-6280.439445662214
 10
17182.33159682357
 20
-6270.603231617215
  0
LWPOLYLINE
  5
DF5E
330
1F
100
AcDbEntity
  8
0
  6
Continuous
 62
     7
100
AcDbPolyline
 90
       18
 70
     0
 43
0.0
 10
17500.93238225607
 20
-6109.596493275314
 10
17477.98980612347
 20
-6097.685376196714
 10
17451.80046297567
 20
-6088.071866448414
 10
17422.95840674777
 20
-6080.937307247914
 10
17392.10448395327
 20
-6076.408919011214
 10
17359.89655354857
 20
-6074.559912726214
 10
17327.01677084847
 20
-6075.414879436814
 10
17294.15555070987
 20
-6078.948962736815
 10
17262.00988686207
 20
-6085.086852097214
 10
17231.25707832347
 20
-6093.705372666214
 10
17202.54507320817
 20
-6104.637844228315
 10
17176.49902133187
 20
-6117.670220731914
 10
17153.69393851607
 20
-6132.548044404114
 10
17134.64864259047
 20
-6148.976929228615
 10
17119.84324690777
 20
-6166.578964343314
 10
17109.64873052887
 20
-6184.876898715314
 10
17104.20742647717
 20
-6203.476526013514
 10
17103.55772610547
 20
-6221.898666890115
  0
LWPOLYLINE
  5
DF5F
102
{ACAD_REACTORS
330
DF4B
102
}
330
1F
100
AcDbEntity
  8
0
  6
Continuous
 62
     7
100
AcDbPolyline
 90
       38
 70
     0
 43
0.0
 10
17497.31766961727
 20
-6109.693600836314
 10
17485.22028254607
 20
-6102.936225025715
 10
17472.00416855467
 20
-6096.836788561115
 10
17457.76359786607
 20
-6091.438375328614
 10
17442.59963415977
 20
-6086.778883193714
 10
17426.61925845797
 20
-6082.890875251814
 10
17409.93482028507
 20
-6079.801533647414
 10
17392.66371680197
 20
-6077.532585525114
 10
17374.92791327637
 20
-6076.100118775214
 10
17356.85315015067
 20
-6075.514353322114
 10
17338.56782197387
 20
-6075.779463562414
 10
17320.20116947167
 20
-6076.893569955914
 10
17301.88268068827
 20
-6078.848861387314
 10
17283.74217058887
 20
-6081.631552094514
 10
17265.90850182497
 20
-6085.221906153214
 10
17248.50835202637
 20
-6089.594387969015
 10
17231.66457571127
 20
-6094.718081717114
 10
17215.49499819777
 20
-6100.557246214814
 10
17200.11337854037
 20
-6107.071117796814
 10
17185.62949878677
 20
-6114.213575903015
 10
17172.14660323007
 20
-6121.934000535414
 10
17159.75995942787
 20
-6130.178181125415
 10
17148.55766041737
 20
-6138.887951113815
 10
17138.62000463517
 20
-6148.001315784014
 10
17130.01765894477
 20
-6157.453885720714
 10
17122.81163608377
 20
-6167.179289020714
 10
17117.05402085297
 20
-6177.108008897414
 10
17112.78639600607
 20
-6187.168645860015
 10
17110.03840411877
 20
-6197.292780110414
 10
17108.83075216147
 20
-6207.410403526615
 10
17109.17279678387
 20
-6217.437476183214
 10
17111.05808439027
 20
-6227.301171310015
 10
17114.49062145297
 20
-6236.981717774314
 10
17119.45602534217
 20
-6246.391671369615
 10
17125.77575527247
 20
-6255.270232748515
 10
17133.47812200887
 20
-6263.729491041515
 10
17143.37337286737
 20
-6272.399316267514
 10
17156.85527776067
 20
-6281.748227652514
  0
LINE
  5
DF60
102
{ACAD_REACTORS
330
DF4B
102
}
330
1F
100
AcDbEntity
  8
0
  6
Continuous
 62
     7
100
AcDbLine
 10
17510.79957451047
 20
-6119.042512221415
 30
0.0
 11
17497.31766961727
 21
-6109.693600836314
 31
0.0
  0
LWPOLYLINE
  5
DF61
330
1F
100
AcDbEntity
  8
0
  6
Continuous
 62
     7
100
AcDbPolyline
 90
       36
 70
     0
 43
0.0
 10
17475.45606319307
 20
-6120.741489310614
 10
17487.23957981747
 20
-6128.915699239615
 10
17495.89479423637
 20
-6136.508904952814
 10
17502.62614361377
 20
-6143.920500780314
 10
17508.13104260217
 20
-6151.684855939515
 10
17512.45157841607
 20
-6159.922094313515
 10
17515.42665429607
 20
-6168.399441537214
 10
17517.04126197297
 20
-6177.032060424214
 10
17517.30071052047
 20
-6185.806957164015
 10
17516.19983036177
 20
-6194.657582084814
 10
17513.74884386827
 20
-6203.507711378414
 10
17509.96021287327
 20
-6212.311396356114
 10
17504.85863479607
 20
-6221.002767477713
 10
17498.52779008527
 20
-6229.459155313514
 10
17490.98641219347
 20
-6237.674374072214
 10
17482.02112505687
 20
-6245.814216439414
 10
17471.48612223097
 20
-6253.869132883914
 10
17459.47375073257
 20
-6261.641796293015
 10
17446.16841115487
 20
-6268.941334596914
 10
17431.82530184127
 20
-6275.605350882115
 10
17416.75828024857
 20
-6281.507657167114
 10
17401.32551125477
 20
-6286.563952123715
 10
17385.89289081997
 20
-6290.740381081413
 10
17370.47262798137
 20
-6294.116757237315
 10
17354.74844410647
 20
-6296.796131833715
 10
17338.72632284977
 20
-6298.770524604414
 10
17322.63340292217
 20
-6300.005710181415
 10
17306.59113780707
 20
-6300.494548088114
 10
17290.68063876837
 20
-6300.234849624914
 10
17275.03815722817
 20
-6299.228358432714
 10
17259.78392897147
 20
-6297.484620460615
 10
17244.94193479017
 20
-6295.002192630414
 10
17230.65634022627
 20
-6291.796500215315
 10
17217.32844277827
 20
-6287.979393230715
 10
17204.76863449677
 20
-6283.523171090714
 10
17192.10275826917
 20
-6277.998791920914
  0
LINE
  5
DF62
330
1F
100
AcDbEntity
  8
0
  6
Continuous
 62
     7
100
AcDbLine
 10
17521.02595462237
 20
-6256.124389029714
 30
0.0
 11
17520.12991055287
 21
-6289.320719250114
 31
0.0
  0
LWPOLYLINE
  5
DF63
330
1F
100
AcDbEntity
  8
0
  6
Continuous
 62
     7
100
AcDbPolyline
 90
       20
 70
     0
 43
0.0
 10
17520.12991055287
 20
-6289.320719249214
 10
17517.53243565967
 20
-6306.108772019515
 10
17510.42720659337
 20
-6323.114200801314
 10
17498.77811745507
 20
-6339.641994240714
 10
17482.83854952377
 20
-6355.112819420215
 10
17463.16676867737
 20
-6369.005833464214
 10
17440.41784432867
 20
-6380.978444280015
 10
17415.27406308067
 20
-6390.799704309015
 10
17388.34874633217
 20
-6398.328162778014
 10
17360.24459452197
 20
-6403.451344371214
 10
17331.63265974777
 20
-6406.075096723515
 10
17303.13122806537
 20
-6406.147329012513
 10
17275.41895218697
 20
-6403.648868362314
 10
17249.10289656817
 20
-6398.592990768214
 10
17224.79032245717
 20
-6391.018038790114
 10
17203.19139346367
 20
-6381.048904372914
 10
17184.96483815147
 20
-6368.913594092614
 10
17170.68288852857
 20
-6354.998439093314
 10
17160.65671877207
 20
-6339.768807224214
 10
17154.98781702317
 20
-6323.817535538714
  0
LINE
  5
DF64
330
1F
100
AcDbEntity
  8
0
  6
Continuous
 62
     7
100
AcDbLine
 10
17551.56282513937
 20
-6179.573364297015
 30
0.0
 11
17552.04005374477
 21
-6184.624843183915
 31
0.0
  0
LINE
  5
DF65
330
1F
100
AcDbEntity
  8
0
  6
Continuous
 62
     7
100
AcDbLine
 10
17551.79560940707
 20
-6188.726347628715
 30
0.0
 11
17551.56282513937
 21
-6179.573364297015
 31
0.0
  0
LWPOLYLINE
  5
DF66
330
1F
100
AcDbEntity
  8
0
  6
Continuous
 62
     7
100
AcDbPolyline
 90
       30
 70
     0
 43
0.0
 10
17552.04005374477
 20
-6184.624843183915
 10
17552.26931770507
 20
-6193.743630156115
 10
17551.02820465557
 20
-6204.138612770215
 10
17548.20449448917
 20
-6214.540305221914
 10
17543.81945120097
 20
-6224.876771547215
 10
17537.90351908227
 20
-6235.077713290614
 10
17530.49941345737
 20
-6245.069766167215
 10
17521.66064590627
 20
-6254.781496027515
 10
17511.44990688287
 20
-6264.144698602515
 10
17499.93979622827
 20
-6273.093217682614
 10
17487.21280321217
 20
-6281.563359490214
 10
17473.35949396647
 20
-6289.495323465715
 10
17458.47781380027
 20
-6296.833387574415
 10
17442.67360333547
 20
-6303.525650679114
 10
17426.05955983767
 20
-6309.524727836814
 10
17408.75361661977
 20
-6314.788401739214
 10
17390.87793377367
 20
-6319.279824195515
 10
17372.55818866677
 20
-6322.967598116715
 10
17353.92316932347
 20
-6325.825838704514
 10
17335.10431449927
 20
-6327.834331182315
 10
17316.23491467907
 20
-6328.978772705714
 10
17297.44897603987
 20
-6329.250997205414
 10
17278.87961475727
 20
-6328.649078435614
 10
17260.65773971517
 20
-6327.177234668914
 10
17242.91218572107
 20
-6324.845794159415
 10
17225.76908508467
 20
-6321.671271830615
 10
17209.35015016367
 20
-6317.676217242414
 10
17193.77171058477
 20
-6312.888992944214
 10
17179.14300587777
 20
-6307.343134810415
 10
17165.56652739667
 20
-6301.077193167714
  0
LWPOLYLINE
  5
DF67
330
1F
100
AcDbEntity
  8
0
  6
Continuous
 62
     7
100
AcDbPolyline
 90
        6
 70
     0
 43
0.0
 10
17551.56282513937
 20
-6179.573364297015
 10
17548.33020562067
 20
-6164.073768636214
 10
17541.58231651857
 20
-6149.061234397215
 10
17531.32958844227
 20
-6134.779113365914
 10
17517.69596851287
 20
-6121.529670502914
 10
17500.93238225607
 20
-6109.596493275314
  0
LWPOLYLINE
  5
DF68
330
1F
100
AcDbEntity
  8
0
  6
Continuous
 62
     7
100
AcDbPolyline
 90
        7
 70
     0
 43
0.0
 10
16568.41925865918
 20
-6155.095638332493
 10
16568.81127112268
 20
-6155.375473995893
 10
16569.95595993698
 20
-6155.591465592293
 10
16571.78115916788
 20
-6155.743389819393
 10
16574.14378113338
 20
-6155.838098114693
 10
16576.92824331258
 20
-6155.888827497193
 10
16579.91925865918
 20
-6155.904420076093
  0
LWPOLYLINE
  5
DF69
330
1F
100
AcDbEntity
  8
0
  6
Continuous
 62
     7
100
AcDbPolyline
 90
        7
 70
     0
 43
0.0
 10
16591.41925865918
 20
-6155.095638332493
 10
16591.02870630448
 20
-6154.767561778193
 10
16589.88419253298
 20
-6154.418284774493
 10
16588.05462633568
 20
-6154.083452899492
 10
16585.68678293808
 20
-6153.807299214593
 10
16582.89748726868
 20
-6153.622292466993
 10
16579.91925865918
 20
-6153.557999330993
  0
LWPOLYLINE
  5
DF6A
330
1F
100
AcDbEntity
  8
0
  6
Continuous
 62
     7
100
AcDbPolyline
 90
        7
 70
     0
 43
0.0
 10
16579.91925865918
 20
-6153.557999330993
 10
16576.93441391038
 20
-6153.622581628893
 10
16574.12941526898
 20
-6153.809329751993
 10
16571.76533965258
 20
-6154.086182322494
 10
16569.93949035168
 20
-6154.421736910893
 10
16568.80727448128
 20
-6154.768687891393
 10
16568.41925865918
 20
-6155.095638332493
  0
LWPOLYLINE
  5
DF6B
330
1F
100
AcDbEntity
  8
0
  6
Continuous
 62
     7
100
AcDbPolyline
 90
        7
 70
     0
 43
0.0
 10
16579.91925865918
 20
-6155.904420076093
 10
16582.91846755878
 20
-6155.888737960093
 10
16585.71743109828
 20
-6155.837476733992
 10
16588.07257989188
 20
-6155.742516467394
 10
16589.89523124048
 20
-6155.589912310993
 10
16591.02891268868
 20
-6155.374940016793
 10
16591.41925865918
 20
-6155.095638332493
  0
LINE
  5
DF6C
330
1F
100
AcDbEntity
  8
0
  6
Continuous
 62
     7
100
AcDbLine
 10
16354.91925865918
 20
-6811.756243738902
 30
0.0
 11
16354.91925865918
 21
-6805.756243738902
 31
0.0
  0
LINE
  5
DF6D
330
1F
100
AcDbEntity
  8
0
  6
Continuous
 62
     7
100
AcDbLine
 10
16385.19040038348
 20
-6817.248786178203
 30
0.0
 11
16396.13439204183
 21
-6935.482968210902
 31
0.0
  0
LINE
  5
DF6E
330
1F
100
AcDbEntity
  8
0
  6
Continuous
 62
     7
100
AcDbLine
 10
16395.01292122918
 20
-6805.147294666102
 30
0.0
 11
16406.56509325683
 21
-6929.342960172402
 31
0.0
  0
LINE
  5
DF6F
330
1F
100
AcDbEntity
  8
0
  6
Continuous
 62
     2
100
AcDbLine
 10
16455.79375895203
 20
-6952.130470583504
 30
0.0
 11
16438.29547186693
 21
-6939.878038060803
 31
0.0
  0
LINE
  5
DF70
330
1F
100
AcDbEntity
  8
0
  6
Continuous
 62
     2
100
AcDbLine
 10
16405.28154801283
 20
-6916.761439712202
 30
0.0
 11
16393.37383860553
 21
-6908.423571822402
 31
0.0
  0
LINE
  5
DF71
102
{ACAD_REACTORS
330
E0BA
102
}
330
1F
100
AcDbEntity
  8
0
  6
Continuous
 62
     7
100
AcDbLine
 10
16611.17026513703
 20
-6994.756243738902
 30
0.0
 11
16548.66825218123
 21
-6994.756243738902
 31
0.0
  0
LINE
  5
DF72
330
1F
100
AcDbEntity
  8
0
  6
Continuous
 62
     7
100
AcDbLine
 10
16749.82953404083
 20
-6948.923943772303
 30
0.0
 11
16621.37540126543
 21
-6957.920201036502
 31
0.0
  0
LINE
  5
DF73
330
1F
100
AcDbEntity
  8
0
  6
Continuous
 62
     7
100
AcDbLine
 10
16564.91925865913
 20
-6975.756243738903
 30
0.0
 11
16594.91925865913
 21
-6975.756243738903
 31
0.0
  0
LINE
  5
DF74
330
1F
100
AcDbEntity
  8
0
  6
Continuous
 62
     7
100
AcDbLine
 10
16564.91925865913
 20
-6960.756243738902
 30
0.0
 11
16594.91925865913
 21
-6960.756243738902
 31
0.0
  0
LINE
  5
DF75
330
1F
100
AcDbEntity
  8
0
  6
Continuous
 62
     7
100
AcDbLine
 10
16410.00898327743
 20
-6948.923943772303
 30
0.0
 11
16538.46311605283
 21
-6957.920201036502
 31
0.0
  0
LINE
  5
DF76
330
1F
100
AcDbEntity
  8
0
  6
Continuous
 62
     2
100
AcDbLine
 10
16557.66925865913
 20
-6991.582436164804
 30
0.0
 11
16544.85668539753
 21
-6982.610975783202
 31
0.0
  0
LINE
  5
DF77
330
1F
100
AcDbEntity
  8
0
  6
Continuous
 62
     2
100
AcDbLine
 10
16506.38627820823
 20
-6955.673706671202
 30
0.0
 11
16488.88799112313
 21
-6943.421274148502
 31
0.0
  0
LINE
  5
DF78
330
1F
100
AcDbEntity
  8
0
  6
Continuous
 62
     2
100
AcDbLine
 10
16401.77878145553
 20
-6882.426748891801
 30
0.0
 11
16389.87107204823
 21
-6874.088881002002
 31
0.0
  0
LINE
  5
DF79
330
1F
100
AcDbEntity
  8
0
  6
Continuous
 62
     7
100
AcDbLine
 10
16744.02369657103
 20
-6938.303610546704
 30
0.0
 11
16616.19245531133
 21
-6947.256243738903
 31
0.0
  0
LINE
  5
DF7A
330
1F
100
AcDbEntity
  8
0
  6
Continuous
 62
     7
100
AcDbLine
 10
16602.16925865913
 20
-6960.354568519602
 30
0.0
 11
16557.66925865913
 21
-6960.354568519602
 31
0.0
  0
LINE
  5
DF7B
330
1F
100
AcDbEntity
  8
0
  6
Continuous
 62
     7
100
AcDbLine
 10
16604.19353836983
 20
-6955.860834194902
 30
0.0
 11
16555.64497894843
 21
-6955.860834194902
 31
0.0
  0
LINE
  5
DF7C
330
1F
100
AcDbEntity
  8
0
  6
Continuous
 62
     7
100
AcDbLine
 10
16612.21673502203
 20
-6948.762509414201
 30
0.0
 11
16547.62178229623
 21
-6948.762509414201
 31
0.0
  0
LINE
  5
DF7D
102
{ACAD_REACTORS
330
E0BA
102
}
330
1F
100
AcDbEntity
  8
0
  6
Continuous
 62
     7
100
AcDbLine
 10
16543.64606200693
 20
-6947.256243738903
 30
0.0
 11
16616.19245531133
 21
-6947.256243738903
 31
0.0
  0
LINE
  5
DF7E
330
1F
100
AcDbEntity
  8
0
  6
Continuous
 62
     7
100
AcDbLine
 10
16415.81482074723
 20
-6938.303610546704
 30
0.0
 11
16543.64606200693
 21
-6947.256243738903
 31
0.0
  0
LINE
  5
DF7F
330
1F
100
AcDbEntity
  8
0
  6
Continuous
 62
     2
100
AcDbLine
 10
16607.73417931993
 20
-6994.756243738902
 30
0.0
 11
16602.16925865913
 21
-6990.859644342702
 31
0.0
  0
LINE
  5
DF80
330
1F
100
AcDbEntity
  8
0
  6
Continuous
 62
     2
100
AcDbLine
 10
16557.56609258703
 20
-6959.628171231003
 30
0.0
 11
16539.48051037933
 21
-6946.964510236203
 31
0.0
  0
LINE
  5
DF81
330
1F
100
AcDbEntity
  8
0
  6
Continuous
 62
     2
100
AcDbLine
 10
16398.27601489838
 20
-6837.132672629202
 30
0.0
 11
16386.36830549108
 21
-6828.794804739402
 31
0.0
  0
LINE
  5
DF82
330
1F
100
AcDbEntity
  8
0
  6
Continuous
 62
     2
100
AcDbLine
 10
16364.45972861428
 20
-6813.454254058803
 30
0.0
 11
16354.91925865918
 21
-6806.773945078202
 31
0.0
  0
LINE
  5
DF83
330
1F
100
AcDbEntity
  8
0
  6
Continuous
 62
     7
100
AcDbLine
 10
16555.64497894843
 20
-6955.860834194902
 30
0.0
 11
16547.62178229623
 21
-6948.762509414201
 31
0.0
  0
LINE
  5
DF84
330
1F
100
AcDbEntity
  8
0
  6
Continuous
 62
     2
100
AcDbLine
 10
16616.19053631153
 20
-6968.795421377702
 30
0.0
 11
16602.34713050463
 21
-6959.102164277301
 31
0.0
  0
LINE
  5
DF85
330
1F
100
AcDbEntity
  8
0
  6
Continuous
 62
     2
100
AcDbLine
 10
16393.55660415568
 20
-6801.946078378802
 30
0.0
 11
16390.92931051818
 21
-6800.106427568703
 31
0.0
  0
LINE
  5
DF86
330
1F
100
AcDbEntity
  8
0
  6
Continuous
 62
     7
100
AcDbLine
 10
16543.09477126283
 20
-6962.472205070501
 30
0.0
 11
16545.67966808693
 21
-6992.017710967203
 31
0.0
  0
LINE
  5
DF87
330
1F
100
AcDbEntity
  8
0
  6
Continuous
 62
     2
100
AcDbLine
 10
16643.93495809093
 20
-6956.340247378403
 30
0.0
 11
16629.61875721143
 21
-6946.315935604103
 31
0.0
  0
LINE
  5
DF88
330
1F
100
AcDbEntity
  8
0
  6
Continuous
 62
     7
100
AcDbLine
 10
16557.66925865913
 20
-6994.756243738902
 30
0.0
 11
16557.66925865913
 21
-6960.354568519602
 31
0.0
  0
LINE
  5
DF89
330
1F
100
AcDbEntity
  8
0
  6
Continuous
 62
     7
100
AcDbLine
 10
16559.91925865913
 20
-6965.756243738903
 30
0.0
 11
16559.91925865913
 21
-6970.756243738903
 31
0.0
  0
LINE
  5
DF8A
330
1F
100
AcDbEntity
  8
0
  6
Continuous
 62
     2
100
AcDbLine
 10
16685.32716209053
 20
-6953.441353369602
 30
0.0
 11
16671.01096121102
 21
-6943.417041595302
 31
0.0
  0
LINE
  5
DF8B
330
1F
100
AcDbEntity
  8
0
  6
Continuous
 62
     7
100
AcDbLine
 10
16599.91925865913
 20
-6965.756243738903
 30
0.0
 11
16599.91925865913
 21
-6970.756243738903
 31
0.0
  0
LINE
  5
DF8C
102
{ACAD_REACTORS
330
E0BD
102
}
330
1F
100
AcDbEntity
  8
0
  6
Continuous
 62
     7
100
AcDbLine
 10
16602.16925865913
 20
-6994.756243738902
 30
0.0
 11
16602.16925865913
 21
-6960.354568519602
 31
0.0
  0
LINE
  5
DF8D
330
1F
100
AcDbEntity
  8
0
  6
Continuous
 62
     2
100
AcDbLine
 10
16726.71936609023
 20
-6950.542459360803
 30
0.0
 11
16712.40316521073
 21
-6940.518147586503
 31
0.0
  0
LINE
  5
DF8E
330
1F
100
AcDbEntity
  8
0
  6
Continuous
 62
     7
100
AcDbLine
 10
16775.72785675228
 20
-6814.756243738902
 30
0.0
 11
16797.02112981938
 21
-6814.756243738902
 31
0.0
  0
LINE
  5
DF8F
330
1F
100
AcDbEntity
  8
0
  6
Continuous
 62
     7
100
AcDbLine
 10
16801.91925865918
 20
-6814.756243738902
 30
0.0
 11
16797.74780743848
 21
-6814.756243738902
 31
0.0
  0
LINE
  5
DF90
330
1F
100
AcDbEntity
  8
0
  6
Continuous
 62
     7
100
AcDbLine
 10
16384.11066056608
 20
-6814.756243738902
 30
0.0
 11
16357.91925865918
 21
-6814.756243738902
 31
0.0
  0
LINE
  5
DF91
330
1F
100
AcDbEntity
  8
0
  6
Continuous
 62
     7
100
AcDbLine
 10
16792.84831253008
 20
-6812.756243738903
 30
0.0
 11
16779.62229896048
 21
-6812.756243738903
 31
0.0
  0
LINE
  5
DF92
330
1F
100
AcDbEntity
  8
0
  6
Continuous
 62
     7
100
AcDbLine
 10
16380.21621835788
 20
-6812.756243738903
 30
0.0
 11
16366.99020478828
 21
-6812.756243738903
 31
0.0
  0
LINE
  5
DF93
330
1F
100
AcDbEntity
  8
0
  6
Continuous
 62
     7
100
AcDbLine
 10
16764.82559608918
 20
-6805.147294666102
 30
0.0
 11
16395.01292122918
 21
-6805.147294666102
 31
0.0
  0
LINE
  5
DF94
330
1F
100
AcDbEntity
  8
0
  6
Continuous
 62
     2
100
AcDbLine
 10
16760.93698177443
 20
-6942.619864530003
 30
0.0
 11
16750.41153837663
 21
-6935.249869719902
 31
0.0
  0
LINE
  5
DF95
330
1F
100
AcDbEntity
  8
0
  6
Continuous
 62
     7
100
AcDbLine
 10
16616.74374605543
 20
-6962.472205070501
 30
0.0
 11
16614.15884923133
 21
-6992.017710967203
 31
0.0
  0
LINE
  5
DF96
330
1F
100
AcDbEntity
  8
0
  6
Continuous
 62
     7
100
AcDbLine
 10
16798.91925865918
 20
-6799.756243738902
 30
0.0
 11
16360.91925865918
 21
-6799.756243738902
 31
0.0
  0
LINE
  5
DF97
330
1F
100
AcDbEntity
  8
0
  6
Continuous
 62
     2
100
AcDbLine
 10
16765.87578307923
 20
-6914.196023160903
 30
0.0
 11
16755.55588042263
 21
-6906.969949527102
 31
0.0
  0
LINE
  5
DF98
330
1F
100
AcDbEntity
  8
0
  6
Continuous
 62
     7
100
AcDbLine
 10
16604.19353836983
 20
-6955.860834194902
 30
0.0
 11
16612.21673502203
 21
-6948.762509414201
 31
0.0
  0
LINE
  5
DF99
330
1F
100
AcDbEntity
  8
0
  6
Continuous
 62
     2
100
AcDbLine
 10
16768.91148110173
 20
-6884.439614527401
 30
0.0
 11
16758.59157844503
 21
-6877.213540893703
 31
0.0
  0
LINE
  5
DF9A
330
1F
100
AcDbEntity
  8
0
  6
Continuous
 62
     2
100
AcDbLine
 10
16771.94717912418
 20
-6843.723820451902
 30
0.0
 11
16761.62727646758
 21
-6836.497746818202
 31
0.0
  0
LINE
  5
DF9B
330
1F
100
AcDbEntity
  8
0
  6
Continuous
 62
     2
100
AcDbLine
 10
16775.86088089388
 20
-6814.582196660902
 30
0.0
 11
16764.66297448998
 21
-6806.741338184703
 31
0.0
  0
LINE
  5
DF9C
102
{ACAD_REACTORS
330
E0BD
102
}
330
1F
100
AcDbEntity
  8
0
  6
Continuous
 62
     2
100
AcDbLine
 10
16803.78537396888
 20
-6802.253109940202
 30
0.0
 11
16800.59955662498
 21
-6800.022376620603
 31
0.0
  0
LINE
  5
DF9D
330
1F
100
AcDbEntity
  8
0
  6
Continuous
 62
     7
100
AcDbLine
 10
16764.82559608918
 20
-6805.147294666102
 30
0.0
 11
16753.27342406143
 21
-6929.342960172402
 31
0.0
  0
LINE
  5
DF9E
330
1F
100
AcDbEntity
  8
0
  6
Continuous
 62
     7
100
AcDbLine
 10
16774.64811693488
 20
-6817.248786178203
 30
0.0
 11
16763.70412527643
 21
-6935.482968210902
 31
0.0
  0
LINE
  5
DF9F
330
1F
100
AcDbEntity
  8
0
  6
Continuous
 62
     7
100
AcDbLine
 10
16804.91925865918
 20
-6811.756243738902
 30
0.0
 11
16804.91925865918
 21
-6805.756243738902
 31
0.0
  0
LWPOLYLINE
  5
DFA0
330
1F
100
AcDbEntity
  8
0
  6
Continuous
 62
     7
100
AcDbPolyline
 90
        7
 70
     0
 43
0.0
 10
16633.23697664838
 20
-7595.278891832379
 10
16632.96616267308
 20
-7595.343942999779
 10
16632.68232120518
 20
-7595.360292690378
 10
16632.38996570448
 20
-7595.32213617658
 10
16632.09616185598
 20
-7595.225241622379
 10
16631.81060930568
 20
-7595.070564512081
 10
16631.54269802928
 20
-7594.86524088568
  0
LWPOLYLINE
  5
DFA1
330
1F
100
AcDbEntity
  8
0
  6
Continuous
 62
     7
100
AcDbPolyline
 90
        4
 70
     0
 43
0.0
 10
16533.55696486048
 20
-7598.800308419679
 10
16531.87183835938
 20
-7598.231486102879
 10
16530.37263853748
 20
-7597.31705423808
 10
16529.11725931888
 20
-7596.104934625279
  0
LWPOLYLINE
  5
DFA2
330
1F
100
AcDbEntity
  8
0
  6
Continuous
 62
     7
100
AcDbPolyline
 90
        7
 70
     0
 43
0.0
 10
16534.19117666068
 20
-7595.88112551568
 10
16533.09635806008
 20
-7595.51080275068
 10
16532.11883496578
 20
-7594.89907132708
 10
16531.31110617628
 20
-7594.078806958679
 10
16530.71559611518
 20
-7593.093247053978
 10
16530.36383242248
 20
-7591.994361248578
 10
16530.27459262908
 20
-7590.84256537418
  0
LWPOLYLINE
  5
DFA3
330
1F
100
AcDbEntity
  8
0
  6
Continuous
 62
     7
100
AcDbPolyline
 90
       22
 70
     0
 43
0.0
 10
16526.53771893468
 20
-7595.311909093379
 10
16495.37576616308
 20
-7584.764852108278
 10
16466.14077888888
 20
-7569.640106872379
 10
16439.53671560368
 20
-7550.256274956578
 10
16416.17978727428
 20
-7527.061996307178
 10
16396.61034292228
 20
-7500.59374969118
 10
16381.28112651458
 20
-7471.463768455179
 10
16370.54680354788
 20
-7440.345900983979
 10
16364.65573046298
 20
-7407.959995006179
 10
16363.74420881708
 20
-7375.05524506988
 10
16367.83332913238
 20
-7342.392852981878
 10
16376.82848270188
 20
-7310.728412018079
 10
16390.52155177248
 20
-7280.794420595178
 10
16408.59572747628
 20
-7253.283330909278
 10
16430.63284385848
 20
-7228.83152502688
 10
16456.12305805438
 20
-7208.00458953008
 10
16484.47665231748
 20
-7191.284229687079
 10
16515.03768444118
 20
-7179.05712610948
 10
16547.09917031158
 20
-7171.605991824179
 10
16579.91944685738
 20
-7169.103036677579
 10
16612.73968195298
 20
-7171.60604321128
 10
16644.80112309018
 20
-7179.057217304779
  0
LWPOLYLINE
  5
DFA4
330
1F
100
AcDbEntity
  8
0
  6
Continuous
 62
     7
100
AcDbPolyline
 90
        4
 70
     0
 43
0.0
 10
16527.08245907928
 20
-7572.955388614379
 10
16529.00063907488
 20
-7574.00589045558
 10
16530.29258967698
 20
-7575.772542906879
 10
16530.71072747048
 20
-7577.916797197978
  0
LINE
  5
DFA5
330
1F
100
AcDbEntity
  8
0
  6
Continuous
 62
     7
100
AcDbLine
 10
16529.11726385818
 20
-7596.104932003979
 30
0.0
 11
16528.29580379778
 21
-7594.865244647379
 31
0.0
  0
LWPOLYLINE
  5
DFA6
330
1F
100
AcDbEntity
  8
0
  6
Continuous
 62
     7
100
AcDbPolyline
 90
        4
 70
     0
 43
0.0
 10
16614.62551409498
 20
-7586.754568789078
 10
16618.23991500598
 20
-7589.787790185178
 10
16621.91268057708
 20
-7592.829185917779
 10
16625.64809515288
 20
-7595.880960536779
  0
LWPOLYLINE
  5
DFA7
330
1F
100
AcDbEntity
  8
0
  6
Continuous
 62
     7
100
AcDbPolyline
 90
        4
 70
     0
 43
0.0
 10
16618.75721986558
 20
-7581.67437375658
 10
16622.29867605898
 20
-7584.719572534179
 10
16625.89984097498
 20
-7587.773750727578
 10
16629.56408506258
 20
-7590.842189706179
  0
LWPOLYLINE
  5
DFA8
330
1F
100
AcDbEntity
  8
0
  6
Continuous
 62
     7
100
AcDbPolyline
 90
        4
 70
     0
 43
0.0
 10
16629.12778984808
 20
-7577.916797198179
 10
16625.84558588338
 20
-7574.977532467279
 10
16622.61373705568
 20
-7572.054768928579
 10
16619.43048842948
 20
-7569.146885605779
  0
LWPOLYLINE
  5
DFA9
330
1F
100
AcDbEntity
  8
0
  6
Continuous
 62
     7
100
AcDbPolyline
 90
        4
 70
     0
 43
0.0
 10
16632.75605823908
 20
-7572.955388614379
 10
16629.53163697178
 20
-7570.00020941758
 10
16626.35886712978
 20
-7567.06194510698
 10
16623.23604821568
 20
-7564.139004831078
  0
LWPOLYLINE
  5
DFAA
330
1F
100
AcDbEntity
  8
0
  6
Continuous
 62
     7
100
AcDbPolyline
 90
        4
 70
     0
 43
0.0
 10
16550.08750815748
 20
-7405.789404823879
 10
16550.03233052778
 20
-7404.865819716779
 10
16549.80847452258
 20
-7403.967934604179
 10
16549.42360935758
 20
-7403.126514827881
  0
LWPOLYLINE
  5
DFAB
330
1F
100
AcDbEntity
  8
0
  6
Continuous
 62
     7
100
AcDbPolyline
 90
        4
 70
     0
 43
0.0
 10
16548.45498136218
 20
-7406.191272364079
 10
16548.40268524808
 20
-7405.286005054779
 10
16548.18834238638
 20
-7404.404800123778
 10
16547.81900428838
 20
-7403.576648708081
  0
LWPOLYLINE
  5
DFAC
330
1F
100
AcDbEntity
  8
0
  6
Continuous
 62
     7
100
AcDbPolyline
 90
        7
 70
     0
 43
0.0
 10
16537.73218276198
 20
-7550.12008857818
 10
16537.77003996358
 20
-7553.69729622348
 10
16537.70024879048
 20
-7556.982773598377
 10
16537.53276354938
 20
-7559.792335074878
 10
16537.28227193298
 20
-7561.98536677498
 10
16536.96550765628
 20
-7563.459576664678
 10
16536.60246910208
 20
-7564.139004830879
  0
LINE
  5
DFAD
330
1F
100
AcDbEntity
  8
0
  6
Continuous
 62
     7
100
AcDbLine
 10
16530.71072747028
 20
-7577.916797198179
 30
0.0
 11
16530.25469808378
 21
-7590.975770220278
 31
0.0
  0
LINE
  5
DFAE
330
1F
100
AcDbEntity
  8
0
  6
Continuous
 62
     7
100
AcDbLine
 10
16548.45498150868
 20
-7406.191273210779
 30
0.0
 11
16546.74513344628
 21
-7449.45150950158
 31
0.0
  0
LINE
  5
DFAF
330
1F
100
AcDbEntity
  8
0
  6
Continuous
 62
     7
100
AcDbLine
 10
16550.08744945908
 20
-7405.789402773677
 30
0.0
 11
16547.29351492708
 21
-7474.97944754198
 31
0.0
  0
LINE
  5
DFB0
330
1F
100
AcDbEntity
  8
0
  6
Continuous
 62
     7
100
AcDbLine
 10
16546.74513344628
 20
-7449.45150950158
 30
0.0
 11
16542.62339120838
 21
-7550.63366362598
 31
0.0
  0
LINE
  5
DFB1
330
1F
100
AcDbEntity
  8
0
  6
Continuous
 62
     7
100
AcDbLine
 10
16547.29351492708
 20
-7474.97944754198
 30
0.0
 11
16543.86681905618
 21
-7558.66168487738
 31
0.0
  0
LINE
  5
DFB2
330
1F
100
AcDbEntity
  8
0
  6
Continuous
 62
     7
100
AcDbLine
 10
16543.78152508908
 20
-7405.846240290379
 30
0.0
 11
16537.73222026628
 21
-7550.120098193478
 31
0.0
  0
LWPOLYLINE
  5
DFB3
330
1F
100
AcDbEntity
  8
0
  6
Continuous
 62
     7
100
AcDbPolyline
 90
        8
 70
     0
 43
0.0
 10
16543.86681905618
 20
-7558.66168487738
 10
16543.60537825568
 20
-7563.85975291108
 10
16543.25673808518
 20
-7568.80629648238
 10
16542.84003010878
 20
-7573.195229798578
 10
16542.38020090358
 20
-7576.787429242578
 10
16541.91047379838
 20
-7579.403165439379
 10
16541.46705228608
 20
-7580.993585691179
 10
16541.08129745278
 20
-7581.67437375658
  0
LWPOLYLINE
  5
DFB4
330
1F
100
AcDbEntity
  8
0
  6
Continuous
 62
     7
100
AcDbPolyline
 90
        7
 70
     0
 43
0.0
 10
16542.62339120838
 20
-7550.63366362598
 10
16542.38417716988
 20
-7555.30749728638
 10
16542.06466088698
 20
-7559.641324654577
 10
16541.68513453268
 20
-7563.36031224408
 10
16541.26714325268
 20
-7566.27081857948
 10
16540.83252329258
 20
-7568.233619837577
 10
16540.40802888888
 20
-7569.146885605779
  0
LWPOLYLINE
  5
DFB5
330
1F
100
AcDbEntity
  8
0
  6
Continuous
 62
     7
100
AcDbPolyline
 90
        7
 70
     0
 43
0.0
 10
16623.23604821628
 20
-7564.139004830879
 10
16622.87583666408
 20
-7563.468479617078
 10
16622.55980520228
 20
-7562.00823573768
 10
16622.30788637608
 20
-7559.817656963478
 10
16622.13942641918
 20
-7557.012130146178
 10
16622.06859477748
 20
-7553.720922704579
 10
16622.10633439198
 20
-7550.12001130628
  0
LWPOLYLINE
  5
DFB6
330
1F
100
AcDbEntity
  8
0
  6
Continuous
 62
     7
100
AcDbPolyline
 90
        7
 70
     0
 43
0.0
 10
16619.43048842948
 20
-7569.146885605779
 10
16619.00951751648
 20
-7568.245337151579
 10
16618.57668918778
 20
-7566.30109468648
 10
16618.15743072508
 20
-7563.393874260978
 10
16617.77721935348
 20
-7559.679981084379
 10
16617.45624449058
 20
-7555.338195209178
 10
16617.21512610998
 20
-7550.63366362598
  0
LINE
  5
DFB7
330
1F
100
AcDbEntity
  8
0
  6
Continuous
 62
     7
100
AcDbLine
 10
16554.48437298458
 20
-7415.20500054248
 30
0.0
 11
16553.44633167888
 21
-7443.054875742479
 31
0.0
  0
LINE
  5
DFB8
330
1F
100
AcDbEntity
  8
0
  6
Continuous
 62
     7
100
AcDbLine
 10
16553.44633167888
 20
-7443.054875742479
 30
0.0
 11
16551.46232869438
 21
-7493.096061747279
 31
0.0
  0
LINE
  5
DFB9
330
1F
100
AcDbEntity
  8
0
  6
Continuous
 62
     7
100
AcDbLine
 10
16551.46232869438
 20
-7493.096061747279
 30
0.0
 11
16548.78310644698
 21
-7559.17935278208
 31
0.0
  0
LWPOLYLINE
  5
DFBA
330
1F
100
AcDbEntity
  8
0
  6
Continuous
 62
     7
100
AcDbPolyline
 90
        8
 70
     0
 43
0.0
 10
16548.78310645878
 20
-7559.17935278418
 10
16548.34302235858
 20
-7565.411774517179
 10
16547.83061877208
 20
-7571.323694410579
 10
16547.27066132208
 20
-7576.57202704398
 10
16546.69270780578
 20
-7580.873040262179
 10
16546.13372512098
 20
-7584.01165993898
 10
16545.63122884238
 20
-7585.926604180778
 10
16545.21300312058
 20
-7586.754568906279
  0
LINE
  5
DFBB
330
1F
100
AcDbEntity
  8
0
  6
Continuous
 62
     7
100
AcDbLine
 10
16530.27437634338
 20
-7590.842744410278
 30
0.0
 11
16530.25469808378
 21
-7590.975770220278
 31
0.0
  0
LWPOLYLINE
  5
DFBC
330
1F
100
AcDbEntity
  8
0
  6
Continuous
 62
     7
100
AcDbPolyline
 90
        8
 70
     0
 43
0.0
 10
16611.05541086258
 20
-7559.179352822979
 10
16611.49214308728
 20
-7565.36892156658
 10
16612.00927731318
 20
-7571.338142781079
 10
16612.57679465158
 20
-7576.646817181779
 10
16613.15775792288
 20
-7580.950573409779
 10
16613.71401718038
 20
-7584.054786287879
 10
16614.21135621248
 20
-7585.938244655679
 10
16614.62551409838
 20
-7586.75456878848
  0
LWPOLYLINE
  5
DFBD
330
1F
100
AcDbEntity
  8
0
  6
Continuous
 62
     7
100
AcDbPolyline
 90
        8
 70
     0
 43
0.0
 10
16615.97169826218
 20
-7558.66168487738
 10
16616.23102169828
 20
-7563.824408072377
 10
16616.58293386498
 20
-7568.820408792479
 10
16617.00563616238
 20
-7573.260011526679
 10
16617.46823040708
 20
-7576.852957227778
 10
16617.93594471158
 20
-7579.438810460579
 10
16618.37498833808
 20
-7581.002805533478
 10
16618.75721986558
 20
-7581.67437375658
  0
LINE
  5
DFBE
330
1F
100
AcDbEntity
  8
0
  6
Continuous
 62
     7
100
AcDbLine
 10
16617.21512610998
 20
-7550.63366362598
 30
0.0
 11
16612.52122908478
 21
-7435.199681476278
 31
0.0
  0
LINE
  5
DFBF
330
1F
100
AcDbEntity
  8
0
  6
Continuous
 62
     7
100
AcDbLine
 10
16609.75106786488
 20
-7405.789402775079
 30
0.0
 11
16615.97169826218
 21
-7558.66168487738
 31
0.0
  0
LINE
  5
DFC0
330
1F
100
AcDbEntity
  8
0
  6
Continuous
 62
     7
100
AcDbLine
 10
16612.52122908478
 20
-7435.199681476278
 30
0.0
 11
16611.38353575038
 21
-7406.191273218479
 31
0.0
  0
LWPOLYLINE
  5
DFC1
330
1F
100
AcDbEntity
  8
0
  6
Continuous
 62
     7
100
AcDbPolyline
 90
        3
 70
     0
 43
0.0
 10
16605.35503818068
 20
-7415.204232299581
 10
16605.62643824928
 20
-7422.76899420068
 10
16611.05541087268
 20
-7559.179352821178
  0
LINE
  5
DFC2
330
1F
100
AcDbEntity
  8
0
  6
Continuous
 62
     7
100
AcDbLine
 10
16629.58385854288
 20
-7590.976631331978
 30
0.0
 11
16629.56408506258
 21
-7590.842189706179
 31
0.0
  0
LINE
  5
DFC3
330
1F
100
AcDbEntity
  8
0
  6
Continuous
 62
     7
100
AcDbLine
 10
16622.10629495518
 20
-7550.120021417178
 30
0.0
 11
16616.05699189928
 21
-7405.846240812479
 31
0.0
  0
LINE
  5
DFC4
330
1F
100
AcDbEntity
  8
0
  6
Continuous
 62
     7
100
AcDbLine
 10
16629.58385854288
 20
-7590.976631331978
 30
0.0
 11
16629.12778984808
 21
-7577.916797198179
 31
0.0
  0
LWPOLYLINE
  5
DFC5
330
1F
100
AcDbEntity
  8
0
  6
Continuous
 62
     7
100
AcDbPolyline
 90
        7
 70
     0
 43
0.0
 10
16629.56389561558
 20
-7590.842031659978
 10
16629.47552934838
 20
-7591.990041452078
 10
16629.12453840258
 20
-7593.08968336348
 10
16628.52921074148
 20
-7594.076490206379
 10
16627.72176004658
 20
-7594.89740343198
 10
16626.74452872898
 20
-7595.509678282879
 10
16625.64809736328
 20
-7595.880962288378
  0
LWPOLYLINE
  5
DFC6
330
1F
100
AcDbEntity
  8
0
  6
Continuous
 62
     7
100
AcDbPolyline
 90
        4
 70
     0
 43
0.0
 10
16536.60246910268
 20
-7564.139004831078
 10
16533.47965019098
 20
-7567.061945104779
 10
16530.30688034778
 20
-7570.000209416479
 10
16527.08245907928
 20
-7572.955388614379
  0
LWPOLYLINE
  5
DFC7
330
1F
100
AcDbEntity
  8
0
  6
Continuous
 62
     7
100
AcDbPolyline
 90
        4
 70
     0
 43
0.0
 10
16540.40802888888
 20
-7569.146885605779
 10
16537.22478026518
 20
-7572.054768926278
 10
16533.99293143618
 20
-7574.977532466078
 10
16530.71072747028
 20
-7577.916797198179
  0
LWPOLYLINE
  5
DFC8
330
1F
100
AcDbEntity
  8
0
  6
Continuous
 62
     7
100
AcDbPolyline
 90
        4
 70
     0
 43
0.0
 10
16541.08129745278
 20
-7581.67437375658
 10
16537.54001744148
 20
-7584.719423510378
 10
16533.93872863508
 20
-7587.77370705988
 10
16530.27437634338
 20
-7590.842744410278
  0
LWPOLYLINE
  5
DFC9
330
1F
100
AcDbEntity
  8
0
  6
Continuous
 62
     7
100
AcDbPolyline
 90
        4
 70
     0
 43
0.0
 10
16545.21300309268
 20
-7586.754568901479
 10
16541.59878457148
 20
-7589.787638489879
 10
16537.92589502108
 20
-7592.829138043679
 10
16534.19117743168
 20
-7595.881124723779
  0
LWPOLYLINE
  5
DFCA
330
1F
100
AcDbEntity
  8
0
  6
Continuous
 62
     7
100
AcDbPolyline
 90
        7
 70
     0
 43
0.0
 10
16528.29580400898
 20
-7594.865244966479
 10
16528.03180570308
 20
-7595.067999331179
 10
16527.74960377758
 20
-7595.22205150538
 10
16527.45497637208
 20
-7595.32066625288
 10
16527.15415777728
 20
-7595.360365686578
 10
16526.85107423868
 20
-7595.34060030648
 10
16526.60312332488
 20
-7595.27770751778
  0
LINE
  5
DFCB
330
1F
100
AcDbEntity
  8
0
  6
Continuous
 62
     7
100
AcDbLine
 10
16630.72139034148
 20
-7596.10472859348
 30
0.0
 11
16631.54269880518
 21
-7594.865239714881
 31
0.0
  0
LWPOLYLINE
  5
DFCC
330
1F
100
AcDbEntity
  8
0
  6
Continuous
 62
     7
100
AcDbPolyline
 90
        4
 70
     0
 43
0.0
 10
16630.72130946938
 20
-7596.10481460298
 10
16629.46516065268
 20
-7597.317700274678
 10
16627.96267096018
 20
-7598.233327096679
 10
16626.28155246948
 20
-7598.800308341878
  0
LWPOLYLINE
  5
DFCD
330
1F
100
AcDbEntity
  8
0
  6
Continuous
 62
     7
100
AcDbPolyline
 90
        4
 70
     0
 43
0.0
 10
16632.75605823908
 20
-7572.955388614379
 10
16630.83787674078
 20
-7574.005891774278
 10
16629.54592677468
 20
-7575.772544888879
 10
16629.12778984778
 20
-7577.916797197879
  0
LWPOLYLINE
  5
DFCE
330
1F
100
AcDbEntity
  8
0
  6
Continuous
 62
     7
100
AcDbPolyline
 90
       18
 70
     0
 43
0.0
 10
16644.80112309018
 20
-7179.057217304779
 10
16675.36211044348
 20
-7191.284350284378
 10
16703.71566159048
 20
-7208.00473061998
 10
16729.20583548398
 20
-7228.831679385379
 10
16751.24291500208
 20
-7253.28349305008
 10
16769.31705739758
 20
-7280.794586691678
 10
16783.01009638058
 20
-7310.72857970768
 10
16792.00522237558
 20
-7342.393021070278
 10
16796.09431664728
 20
-7375.05541315788
 10
16795.18276934558
 20
-7407.960163061878
 10
16789.29166980818
 20
-7440.346068905579
 10
16778.55731850838
 20
-7471.463935570979
 10
16763.22807089678
 20
-7500.593914579081
 10
16743.65859229658
 20
-7527.062155670179
 10
16720.30162510458
 20
-7550.256425468281
 10
16693.69752528138
 20
-7569.640238597178
 10
16664.46257502208
 20
-7584.764926849378
 10
16633.30079835888
 20
-7595.311909099679
  0
LINE
  5
DFCF
330
1F
100
AcDbEntity
  8
0
  6
Continuous
 62
     7
100
AcDbLine
 10
17048.88628345631
 20
-6805.756243738902
 30
0.0
 11
17048.88628345631
 21
-6811.756243738902
 31
0.0
  0
LINE
  5
DFD0
330
1F
100
AcDbEntity
  8
0
  6
Continuous
 62
     7
100
AcDbLine
 10
17079.15742518061
 20
-6817.248786178203
 30
0.0
 11
17090.10141683896
 21
-6935.482968210902
 31
0.0
  0
LINE
  5
DFD1
330
1F
100
AcDbEntity
  8
0
  6
Continuous
 62
     7
100
AcDbLine
 10
17100.53211805396
 20
-6929.342960172402
 30
0.0
 11
17088.97994602641
 21
-6805.147294666102
 31
0.0
  0
LINE
  5
DFD2
330
1F
100
AcDbEntity
  8
0
  6
Continuous
 62
     7
100
AcDbLine
 10
17242.63527697836
 20
-6994.756243738902
 30
0.0
 11
17305.13728993426
 21
-6994.756243738902
 31
0.0
  0
LINE
  5
DFD3
330
1F
100
AcDbEntity
  8
0
  6
Continuous
 62
     2
100
AcDbLine
 10
17149.76078374926
 20
-6952.130470583504
 30
0.0
 11
17132.26249666406
 21
-6939.878038060803
 31
0.0
  0
LINE
  5
DFD4
330
1F
100
AcDbEntity
  8
0
  6
Continuous
 62
     2
100
AcDbLine
 10
17099.24857280996
 20
-6916.761439712202
 30
0.0
 11
17087.34086340266
 21
-6908.423571822402
 31
0.0
  0
LINE
  5
DFD5
330
1F
100
AcDbEntity
  8
0
  6
Continuous
 62
     7
100
AcDbLine
 10
17450.30321007736
 20
-6975.434141682803
 30
0.0
 11
17312.96867181726
 21
-6985.052336214504
 31
0.0
  0
LINE
  5
DFD6
330
1F
100
AcDbEntity
  8
0
  6
Continuous
 62
     7
100
AcDbLine
 10
17451.53152522326
 20
-6967.428766358003
 30
0.0
 11
17309.40629115616
 21
-6977.382476229102
 31
0.0
  0
LINE
  5
DFD7
330
1F
100
AcDbEntity
  8
0
  6
Continuous
 62
     7
100
AcDbLine
 10
17309.54856806326
 20
-6975.756243738903
 30
0.0
 11
17296.13628345626
 21
-6975.756243738903
 31
0.0
  0
LINE
  5
DFD8
330
1F
100
AcDbEntity
  8
0
  6
Continuous
 62
     2
100
AcDbLine
 10
17251.63628345626
 20
-6991.582436164804
 30
0.0
 11
17238.82371019466
 21
-6982.610975783202
 31
0.0
  0
LINE
  5
DFD9
330
1F
100
AcDbEntity
  8
0
  6
Continuous
 62
     2
100
AcDbLine
 10
17200.35330300546
 20
-6955.673706671202
 30
0.0
 11
17182.85501592026
 21
-6943.421274148502
 31
0.0
  0
LINE
  5
DFDA
330
1F
100
AcDbEntity
  8
0
  6
Continuous
 62
     2
100
AcDbLine
 10
17095.74580625276
 20
-6882.426748891801
 30
0.0
 11
17083.83809684546
 21
-6874.088881002002
 31
0.0
  0
LINE
  5
DFDB
330
1F
100
AcDbEntity
  8
0
  6
Continuous
 62
     7
100
AcDbLine
 10
17436.87051819926
 20
-6946.401659216302
 30
0.0
 11
17311.34765150546
 21
-6955.192625897602
 31
0.0
  0
LINE
  5
DFDC
330
1F
100
AcDbEntity
  8
0
  6
Continuous
 62
     7
100
AcDbLine
 10
17310.15948010846
 20
-6947.256243738903
 30
0.0
 11
17437.99072136826
 21
-6938.303610546704
 31
0.0
  0
LINE
  5
DFDD
330
1F
100
AcDbEntity
  8
0
  6
Continuous
 62
     7
100
AcDbLine
 10
17310.86089801616
 20
-6960.756243738902
 30
0.0
 11
17296.13628345626
 21
-6960.756243738902
 31
0.0
  0
LINE
  5
DFDE
330
1F
100
AcDbEntity
  8
0
  6
Continuous
 62
     7
100
AcDbLine
 10
17251.63628345626
 20
-6960.354568519602
 30
0.0
 11
17296.13628345626
 21
-6960.354568519602
 31
0.0
  0
LINE
  5
DFDF
330
1F
100
AcDbEntity
  8
0
  6
Continuous
 62
     7
100
AcDbLine
 10
17249.61200374556
 20
-6955.860834194902
 30
0.0
 11
17298.16056316696
 21
-6955.860834194902
 31
0.0
  0
LINE
  5
DFE0
330
1F
100
AcDbEntity
  8
0
  6
Continuous
 62
     7
100
AcDbLine
 10
17241.58880709346
 20
-6948.762509414201
 30
0.0
 11
17306.18375981916
 21
-6948.762509414201
 31
0.0
  0
LINE
  5
DFE1
330
1F
100
AcDbEntity
  8
0
  6
Continuous
 62
     7
100
AcDbLine
 10
17310.15948010846
 20
-6947.256243738903
 30
0.0
 11
17237.61308680416
 21
-6947.256243738903
 31
0.0
  0
LINE
  5
DFE2
330
1F
100
AcDbEntity
  8
0
  6
Continuous
 62
     7
100
AcDbLine
 10
17103.97600807456
 20
-6948.923943772303
 30
0.0
 11
17232.43014084996
 21
-6957.920201036502
 31
0.0
  0
LINE
  5
DFE3
330
1F
100
AcDbEntity
  8
0
  6
Continuous
 62
     7
100
AcDbLine
 10
17237.61308680416
 20
-6947.256243738903
 30
0.0
 11
17109.78184554436
 21
-6938.303610546704
 31
0.0
  0
LINE
  5
DFE4
330
1F
100
AcDbEntity
  8
0
  6
Continuous
 62
     2
100
AcDbLine
 10
17301.70120411716
 20
-6994.756243738902
 30
0.0
 11
17296.13628345626
 21
-6990.859644342702
 31
0.0
  0
LINE
  5
DFE5
330
1F
100
AcDbEntity
  8
0
  6
Continuous
 62
     2
100
AcDbLine
 10
17251.53311738426
 20
-6959.628171231003
 30
0.0
 11
17233.44753517646
 21
-6946.964510236203
 31
0.0
  0
LINE
  5
DFE6
330
1F
100
AcDbEntity
  8
0
  6
Continuous
 62
     2
100
AcDbLine
 10
17092.24303969561
 20
-6837.132672629202
 30
0.0
 11
17080.33533028831
 21
-6828.794804739402
 31
0.0
  0
LINE
  5
DFE7
330
1F
100
AcDbEntity
  8
0
  6
Continuous
 62
     2
100
AcDbLine
 10
17058.42675341141
 20
-6813.454254058803
 30
0.0
 11
17048.88628345631
 21
-6806.773945078202
 31
0.0
  0
LINE
  5
DFE8
330
1F
100
AcDbEntity
  8
0
  6
Continuous
 62
     7
100
AcDbLine
 10
17241.58880709346
 20
-6948.762509414201
 30
0.0
 11
17249.61200374556
 21
-6955.860834194902
 31
0.0
  0
LINE
  5
DFE9
330
1F
100
AcDbEntity
  8
0
  6
Continuous
 62
     2
100
AcDbLine
 10
17331.51939740286
 20
-6983.753140180903
 30
0.0
 11
17321.23776222576
 21
-6976.553861724802
 31
0.0
  0
LINE
  5
DFEA
330
1F
100
AcDbEntity
  8
0
  6
Continuous
 62
     2
100
AcDbLine
 10
17298.67642558796
 20
-6960.756243738902
 30
0.0
 11
17296.31415530186
 21
-6959.102164277301
 31
0.0
  0
LINE
  5
DFEB
330
1F
100
AcDbEntity
  8
0
  6
Continuous
 62
     2
100
AcDbLine
 10
17087.52362895281
 20
-6801.946078378802
 30
0.0
 11
17084.89633531551
 21
-6800.106427568803
 31
0.0
  0
LINE
  5
DFEC
330
1F
100
AcDbEntity
  8
0
  6
Continuous
 62
     7
100
AcDbLine
 10
17239.64669288406
 20
-6992.017710967203
 30
0.0
 11
17237.06179605996
 21
-6962.472205070501
 31
0.0
  0
LINE
  5
DFED
330
1F
100
AcDbEntity
  8
0
  6
Continuous
 62
     2
100
AcDbLine
 10
17372.91160140246
 20
-6980.854246172103
 30
0.0
 11
17362.62996622536
 21
-6973.654967715901
 31
0.0
  0
LINE
  5
DFEE
330
1F
100
AcDbEntity
  8
0
  6
Continuous
 62
     2
100
AcDbLine
 10
17333.99756446636
 20
-6953.606344167304
 30
0.0
 11
17323.58578200856
 21
-6946.315935604103
 31
0.0
  0
LINE
  5
DFEF
330
1F
100
AcDbEntity
  8
0
  6
Continuous
 62
     7
100
AcDbLine
 10
17251.63628345626
 20
-6960.354568519602
 30
0.0
 11
17251.63628345626
 21
-6994.756243738902
 31
0.0
  0
LINE
  5
DFF0
330
1F
100
AcDbEntity
  8
0
  6
Continuous
 62
     7
100
AcDbLine
 10
17462.38523349871
 20
-6848.756243738903
 30
0.0
 11
17454.34371033091
 21
-6848.756243738903
 31
0.0
  0
LINE
  5
DFF1
330
1F
100
AcDbEntity
  8
0
  6
Continuous
 62
     2
100
AcDbLine
 10
17414.30380540216
 20
-6977.955352163302
 30
0.0
 11
17404.02217022506
 21
-6970.756073707104
 31
0.0
  0
LINE
  5
DFF2
330
1F
100
AcDbEntity
  8
0
  6
Continuous
 62
     2
100
AcDbLine
 10
17375.38976846606
 20
-6950.707450158403
 30
0.0
 11
17364.97798600826
 21
-6943.417041595302
 31
0.0
  0
LINE
  5
DFF3
330
1F
100
AcDbEntity
  8
0
  6
Continuous
 62
     7
100
AcDbLine
 10
17296.13628345626
 20
-6960.354568519602
 30
0.0
 11
17296.13628345626
 21
-6960.756243738902
 31
0.0
  0
LINE
  5
DFF4
330
1F
100
AcDbEntity
  8
0
  6
Continuous
 62
     7
100
AcDbLine
 10
17296.13628345626
 20
-6975.756243738903
 30
0.0
 11
17296.13628345626
 21
-6994.756243738902
 31
0.0
  0
LINE
  5
DFF5
330
1F
100
AcDbEntity
  8
0
  6
Continuous
 62
     7
100
AcDbLine
 10
17464.73165424371
 20
-6825.756243738902
 30
0.0
 11
17456.69013107591
 21
-6825.756243738902
 31
0.0
  0
LINE
  5
DFF6
330
1F
100
AcDbEntity
  8
0
  6
Continuous
 62
     2
100
AcDbLine
 10
17454.97168373916
 20
-6974.549279865401
 30
0.0
 11
17445.41437422466
 21
-6967.857179698302
 31
0.0
  0
LINE
  5
DFF7
330
1F
100
AcDbEntity
  8
0
  6
Continuous
 62
     2
100
AcDbLine
 10
17416.78197246566
 20
-6947.808556149603
 30
0.0
 11
17406.37019000786
 21
-6940.518147586503
 31
0.0
  0
LINE
  5
DFF8
330
1F
100
AcDbEntity
  8
0
  6
Continuous
 62
     7
100
AcDbLine
 10
17308.12587402856
 20
-6992.017710967203
 30
0.0
 11
17308.33701660726
 21
-6989.604340248503
 31
0.0
  0
LINE
  5
DFF9
330
1F
100
AcDbEntity
  8
0
  6
Continuous
 62
     7
100
AcDbLine
 10
17311.34765150546
 20
-6955.192625897602
 30
0.0
 11
17310.86089801616
 21
-6960.756243738902
 31
0.0
  0
LINE
  5
DFFA
330
1F
100
AcDbEntity
  8
0
  6
Continuous
 62
     7
100
AcDbLine
 10
17309.54856806326
 20
-6975.756243738903
 30
0.0
 11
17309.40629115616
 21
-6977.382476229102
 31
0.0
  0
LINE
  5
DFFB
330
1F
100
AcDbEntity
  8
0
  6
Continuous
 62
     7
100
AcDbLine
 10
17051.88628345631
 20
-6814.756243738902
 30
0.0
 11
17078.07768536331
 21
-6814.756243738902
 31
0.0
  0
LINE
  5
DFFC
330
1F
100
AcDbEntity
  8
0
  6
Continuous
 62
     7
100
AcDbLine
 10
17492.13595266391
 20
-6814.756243738902
 30
0.0
 11
17495.88628345631
 21
-6814.756243738902
 31
0.0
  0
LINE
  5
DFFD
330
1F
100
AcDbEntity
  8
0
  6
Continuous
 62
     7
100
AcDbLine
 10
17060.95722958541
 20
-6812.756243738903
 30
0.0
 11
17074.18324315501
 21
-6812.756243738903
 31
0.0
  0
LINE
  5
DFFE
330
1F
100
AcDbEntity
  8
0
  6
Continuous
 62
     7
100
AcDbLine
 10
17466.56798352251
 20
-6807.756243738902
 30
0.0
 11
17482.11325908351
 21
-6807.756243738902
 31
0.0
  0
LINE
  5
DFFF
330
1F
100
AcDbEntity
  8
0
  6
Continuous
 62
     7
100
AcDbLine
 10
17458.79262088631
 20
-6805.147294666102
 30
0.0
 11
17088.97994602641
 21
-6805.147294666102
 31
0.0
  0
LINE
  5
E000
330
1F
100
AcDbEntity
  8
0
  6
Continuous
 62
     7
100
AcDbLine
 10
17054.88628345631
 20
-6799.756243738902
 30
0.0
 11
17492.88628345631
 21
-6799.756243738902
 31
0.0
  0
LINE
  5
E001
330
1F
100
AcDbEntity
  8
0
  6
Continuous
 62
     2
100
AcDbLine
 10
17475.66035066936
 20
-6957.153613132901
 30
0.0
 11
17469.32627861216
 21
-6952.718448130902
 31
0.0
  0
LINE
  5
E002
330
1F
100
AcDbEntity
  8
0
  6
Continuous
 62
     2
100
AcDbLine
 10
17450.45860690496
 20
-6939.507162173002
 30
0.0
 11
17444.37856317376
 21
-6935.249869719902
 31
0.0
  0
LINE
  5
E003
330
1F
100
AcDbEntity
  8
0
  6
Continuous
 62
     2
100
AcDbLine
 10
17479.92818099206
 20
-6928.259952824203
 30
0.0
 11
17472.47651457856
 21
-6923.042239829301
 31
0.0
  0
LINE
  5
E004
330
1F
100
AcDbEntity
  8
0
  6
Continuous
 62
     2
100
AcDbLine
 10
17457.02828897006
 20
-6912.225275806202
 30
0.0
 11
17449.52290521976
 21
-6906.969949527102
 31
0.0
  0
LINE
  5
E005
330
1F
100
AcDbEntity
  8
0
  6
Continuous
 62
     7
100
AcDbLine
 10
17306.18375981916
 20
-6948.762509414201
 30
0.0
 11
17298.16056316696
 21
-6955.860834194902
 31
0.0
  0
LINE
  5
E006
330
1F
100
AcDbEntity
  8
0
  6
Continuous
 62
     2
100
AcDbLine
 10
17482.69424715846
 20
-6898.314745932603
 30
0.0
 11
17475.24258074496
 21
-6893.097032937603
 31
0.0
  0
LINE
  5
E007
330
1F
100
AcDbEntity
  8
0
  6
Continuous
 62
     2
100
AcDbLine
 10
17460.06398699246
 20
-6882.468867172804
 30
0.0
 11
17452.55860324226
 21
-6877.213540893703
 31
0.0
  0
LINE
  5
E008
330
1F
100
AcDbEntity
  8
0
  6
Continuous
 62
     2
100
AcDbLine
 10
17485.46031332476
 20
-6868.369539041004
 30
0.0
 11
17478.00864691131
 21
-6852.192440603904
 31
0.0
  0
LINE
  5
E009
330
1F
100
AcDbEntity
  8
0
  6
Continuous
 62
     2
100
AcDbLine
 10
17488.22637949111
 20
-6827.464946707201
 30
0.0
 11
17480.77471307761
 21
-6822.247233712303
 31
0.0
  0
LINE
  5
E00A
330
1F
100
AcDbEntity
  8
0
  6
Continuous
 62
     2
100
AcDbLine
 10
17466.13538303741
 20
-6811.996664463802
 30
0.0
 11
17458.62999928711
 21
-6806.741338184703
 31
0.0
  0
LWPOLYLINE
  5
E00B
330
1F
100
AcDbEntity
  8
0
  6
Continuous
 62
     7
100
AcDbPolyline
 90
        6
 70
     0
 43
0.0
 10
17454.34371033091
 20
-6848.756243738903
 10
17454.41003229231
 20
-6847.200782911102
 10
17454.50474058761
 20
-6845.381595218602
 10
17454.65666481461
 20
-6842.999298550701
 10
17454.87265641111
 20
-6840.233257828502
 10
17455.15249207441
 20
-6837.256243738902
  0
LWPOLYLINE
  5
E00C
330
1F
100
AcDbEntity
  8
0
  6
Continuous
 62
     7
100
AcDbPolyline
 90
        6
 70
     0
 43
0.0
 10
17463.20949501911
 20
-6837.256243738902
 10
17462.92794603431
 20
-6840.241596591202
 10
17462.70883220741
 20
-6843.013807781703
 10
17462.55295508291
 20
-6845.400566992703
 10
17462.45459888661
 20
-6847.218953303602
 10
17462.38523349871
 20
-6848.756243738903
  0
LINE
  5
E00D
330
1F
100
AcDbEntity
  8
0
  6
Continuous
 62
     7
100
AcDbLine
 10
17447.24044885856
 20
-6929.342960172402
 30
0.0
 11
17454.34371033091
 21
-6848.756243738903
 31
0.0
  0
LINE
  5
E00E
330
1F
100
AcDbEntity
  8
0
  6
Continuous
 62
     7
100
AcDbLine
 10
17456.69013107591
 20
-6825.756243738902
 30
0.0
 11
17458.79262088631
 21
-6805.147294666102
 31
0.0
  0
LINE
  5
E00F
330
1F
100
AcDbEntity
  8
0
  6
Continuous
 62
     7
100
AcDbLine
 10
17466.56798352251
 20
-6807.756243738902
 30
0.0
 11
17464.73165424371
 21
-6825.756243738902
 31
0.0
  0
LINE
  5
E010
330
1F
100
AcDbEntity
  8
0
  6
Continuous
 62
     7
100
AcDbLine
 10
17462.38523349871
 20
-6848.756243738903
 30
0.0
 11
17455.36997318006
 21
-6928.480358467703
 31
0.0
  0
LWPOLYLINE
  5
E011
330
1F
100
AcDbEntity
  8
0
  6
Continuous
 62
     7
100
AcDbPolyline
 90
        5
 70
     0
 43
0.0
 10
17455.15249207441
 20
-6837.256243738902
 10
17455.47944251561
 20
-6834.294182356804
 10
17455.82639349601
 20
-6831.541856236403
 10
17456.16194808451
 20
-6829.146767502203
 10
17456.43880065501
 20
-6827.320061699603
  0
LWPOLYLINE
  5
E012
330
1F
100
AcDbEntity
  8
0
  6
Continuous
 62
     7
100
AcDbPolyline
 90
        5
 70
     0
 43
0.0
 10
17464.48796552721
 20
-6827.295629935503
 10
17464.21476312171
 20
-6829.121973616001
 10
17463.88299777551
 20
-6831.515365805102
 10
17463.53644834211
 20
-6834.285019652401
 10
17463.20949501911
 20
-6837.256243738902
  0
LINE
  5
E013
330
1F
100
AcDbEntity
  8
0
  6
Continuous
 62
     7
100
AcDbLine
 10
17464.73165424371
 20
-6825.756243738902
 30
0.0
 11
17464.48796552721
 21
-6827.295629935503
 31
0.0
  0
LINE
  5
E014
330
1F
100
AcDbEntity
  8
0
  6
Continuous
 62
     7
100
AcDbLine
 10
17456.43880065501
 20
-6827.320061699603
 30
0.0
 11
17456.69013107591
 21
-6825.756243738902
 31
0.0
  0
LINE
  5
E015
330
1F
100
AcDbEntity
  8
0
  6
Continuous
 62
     2
100
AcDbLine
 10
17497.75239876601
 20
-6802.253109940202
 30
0.0
 11
17494.56658142221
 21
-6800.022376620701
 31
0.0
  0
LINE
  5
E016
330
1F
100
AcDbEntity
  8
0
  6
Continuous
 62
     7
100
AcDbLine
 10
17470.04947040036
 20
-6949.317222307502
 30
0.0
 11
17482.11325908351
 21
-6807.756243738902
 31
0.0
  0
LINE
  5
E017
330
1F
100
AcDbEntity
  8
0
  6
Continuous
 62
     7
100
AcDbLine
 10
17478.08012784296
 20
-6948.266825607103
 30
0.0
 11
17489.14866991911
 21
-6817.480305697802
 31
0.0
  0
LINE
  5
E018
330
1F
100
AcDbEntity
  8
0
  6
Continuous
 62
     7
100
AcDbLine
 10
17498.88628345631
 20
-6811.756243738902
 30
0.0
 11
17498.88628345631
 21
-6805.756243738902
 31
0.0
  0
LINE
  5
E019
330
1F
100
AcDbEntity
  8
0
  6
Continuous
 62
     7
100
AcDbLine
 10
18024.86432945096
 20
-6994.756243738902
 30
0.0
 11
17962.36231649506
 21
-6994.756243738902
 31
0.0
  0
LINE
  5
E01A
330
1F
100
AcDbEntity
  8
0
  6
Continuous
 62
     7
100
AcDbLine
 10
15629.99232306188
 20
-6948.266825607103
 30
0.0
 11
15618.92378079002
 21
-6817.480303578202
 31
0.0
  0
LINE
  5
E01B
330
1F
100
AcDbEntity
  8
0
  6
Continuous
 62
     7
100
AcDbLine
 10
15609.18616744852
 20
-6811.756243738902
 30
0.0
 11
15609.18616744852
 21
-6805.756243738902
 31
0.0
  0
LWPOLYLINE
  5
E01C
330
1F
100
AcDbEntity
  8
0
  6
Continuous
 62
     7
100
AcDbPolyline
 90
        3
 70
     0
 43
0.0
 10
15655.57896452107
 20
-6935.482968278202
 10
15649.71775993573
 20
-6853.569214109302
 10
15646.76258073782
 20
-6817.248786178203
  0
LWPOLYLINE
  5
E01D
330
1F
100
AcDbEntity
  8
0
  6
Continuous
 62
     7
100
AcDbPolyline
 90
        3
 70
     0
 43
0.0
 10
15650.57108374637
 20
-6935.554647057803
 10
15644.74043688613
 20
-6853.640892699804
 10
15641.80117215403
 20
-6817.320465023403
  0
LWPOLYLINE
  5
E01E
330
1F
100
AcDbEntity
  8
0
  6
Continuous
 62
     7
100
AcDbPolyline
 90
        4
 70
     0
 43
0.0
 10
15638.04359559557
 20
-6948.242707585603
 10
15634.99854584177
 20
-6909.005029044303
 10
15631.94426229227
 20
-6869.085548061403
 10
15628.66858228896
 20
-6814.756243738902
  0
LWPOLYLINE
  5
E01F
330
1F
100
AcDbEntity
  8
0
  6
Continuous
 62
     7
100
AcDbPolyline
 90
        5
 70
     0
 43
0.0
 10
15641.80117215423
 20
-6817.320465023403
 10
15641.80543803642
 20
-6816.577933941302
 10
15641.81410498913
 20
-6815.821268016603
 10
15641.82742630972
 20
-6815.088742584601
 10
15641.83620353643
 20
-6814.756243738902
  0
LWPOLYLINE
  5
E020
330
1F
100
AcDbEntity
  8
0
  6
Continuous
 62
     7
100
AcDbPolyline
 90
        3
 70
     0
 43
0.0
 10
15646.76258073822
 20
-6817.248786177302
 10
15646.26604831822
 20
-6815.492707585803
 10
15645.72282106602
 20
-6814.756243738902
  0
LINE
  5
E021
330
1F
100
AcDbEntity
  8
0
  6
Continuous
 62
     7
100
AcDbLine
 10
15865.43717392647
 20
-6994.756243738902
 30
0.0
 11
15802.93516097057
 21
-6994.756243738902
 31
0.0
  0
LINE
  5
E022
330
1F
100
AcDbEntity
  8
0
  6
Continuous
 62
     7
100
AcDbLine
 10
15799.94657687627
 20
-6992.017710967203
 30
0.0
 11
15868.42575802067
 21
-6992.017710967203
 31
0.0
  0
LINE
  5
E023
330
1F
100
AcDbEntity
  8
0
  6
Continuous
 62
     7
100
AcDbLine
 10
15808.02952974227
 20
-6989.6043599065
 30
0.0
 11
15799.73543429747
 21
-6989.604340248503
 31
0.0
  0
LWPOLYLINE
  5
E024
330
1F
100
AcDbEntity
  8
0
  6
Continuous
 62
     7
100
AcDbPolyline
 90
        8
 70
     0
 43
0.0
 10
15661.05628447467
 20
-6970.882137648802
 10
15655.85821644107
 20
-6969.969201315904
 10
15650.91167286967
 20
-6967.959844901203
 10
15646.52273955357
 20
-6964.950511408602
 10
15642.93054010958
 20
-6961.130780673703
 10
15640.31480391277
 20
-6956.808471152903
 10
15638.72438366097
 20
-6952.377651090502
 10
15638.04359559557
 20
-6948.242707585603
  0
LWPOLYLINE
  5
E025
330
1F
100
AcDbEntity
  8
0
  6
Continuous
 62
     7
100
AcDbPolyline
 90
        4
 70
     0
 43
0.0
 10
15813.52669698807
 20
-6962.472211692602
 10
15814.43196429737
 20
-6962.457387770003
 10
15815.31316922828
 20
-6962.457387885902
 10
15816.14132064397
 20
-6962.472212074803
  0
LINE
  5
E026
330
1F
100
AcDbEntity
  8
0
  6
Continuous
 62
     7
100
AcDbLine
 10
15795.10377908747
 20
-6985.052336214504
 30
0.0
 11
15804.51296880957
 21
-6985.052337068601
 31
0.0
  0
LINE
  5
E027
330
1F
100
AcDbEntity
  8
0
  6
Continuous
 62
     7
100
AcDbLine
 10
15871.01065484477
 20
-6962.472205070501
 30
0.0
 11
15816.14132050457
 21
-6962.472208453903
 31
0.0
  0
LWPOLYLINE
  5
E028
330
1F
100
AcDbEntity
  8
0
  6
Continuous
 62
     7
100
AcDbPolyline
 90
        3
 70
     0
 43
0.0
 10
15813.52669614138
 20
-6962.472211932102
 10
15806.00060967327
 20
-6962.164849892703
 10
15799.04920073297
 20
-6961.834667969703
  0
LINE
  5
E029
330
1F
100
AcDbEntity
  8
0
  6
Continuous
 62
     7
100
AcDbLine
 10
15813.92856657847
 20
-6980.959731959403
 30
0.0
 11
15806.74339912537
 21
-6980.597703892803
 31
0.0
  0
LINE
  5
E02A
330
1F
100
AcDbEntity
  8
0
  6
Continuous
 62
     7
100
AcDbLine
 10
15799.04920073297
 20
-6961.834667969703
 30
0.0
 11
15784.42742027188
 21
-6961.042559626803
 31
0.0
  0
LINE
  5
E02B
330
1F
100
AcDbEntity
  8
0
  6
Continuous
 62
     7
100
AcDbLine
 10
15806.74339912537
 20
-6980.597703892803
 30
0.0
 11
15790.77662358837
 21
-6979.666796396902
 31
0.0
  0
LINE
  5
E02C
330
1F
100
AcDbEntity
  8
0
  6
Continuous
 62
     7
100
AcDbLine
 10
15784.42742027188
 20
-6961.042559626803
 30
0.0
 11
15770.26645985057
 21
-6960.197105794303
 31
0.0
  0
LINE
  5
E02D
330
1F
100
AcDbEntity
  8
0
  6
Continuous
 62
     7
100
AcDbLine
 10
15770.26645985057
 20
-6960.197105794303
 30
0.0
 11
15750.95759434637
 21
-6958.975944528503
 31
0.0
  0
LINE
  5
E02E
330
1F
100
AcDbEntity
  8
0
  6
Continuous
 62
     7
100
AcDbLine
 10
15790.77662358837
 20
-6979.666796396902
 30
0.0
 11
15770.70340419028
 21
-6978.381539237902
 31
0.0
  0
LINE
  5
E02F
330
1F
100
AcDbEntity
  8
0
  6
Continuous
 62
     7
100
AcDbLine
 10
15750.95759434637
 20
-6958.975944528503
 30
0.0
 11
15717.58097034157
 21
-6956.771344267902
 31
0.0
  0
LINE
  5
E030
330
1F
100
AcDbEntity
  8
0
  6
Continuous
 62
     7
100
AcDbLine
 10
15770.70340419028
 20
-6978.381539237902
 30
0.0
 11
15738.08644600517
 21
-6976.192691525703
 31
0.0
  0
LINE
  5
E031
330
1F
100
AcDbEntity
  8
0
  6
Continuous
 62
     7
100
AcDbLine
 10
15717.58097034157
 20
-6956.771344267902
 30
0.0
 11
15669.08430572618
 21
-6953.475947806403
 31
0.0
  0
LINE
  5
E032
330
1F
100
AcDbEntity
  8
0
  6
Continuous
 62
     7
100
AcDbLine
 10
15738.08644600517
 20
-6976.192691525703
 30
0.0
 11
15661.05628447467
 21
-6970.882137648802
 31
0.0
  0
LINE
  5
E033
330
1F
100
AcDbEntity
  8
0
  6
Continuous
 62
     7
100
AcDbLine
 10
15657.76924082737
 20
-6975.434141682803
 30
0.0
 11
15795.10377908747
 21
-6985.052336214504
 31
0.0
  0
LWPOLYLINE
  5
E034
330
1F
100
AcDbEntity
  8
0
  6
Continuous
 62
     7
100
AcDbPolyline
 90
        7
 70
     0
 43
0.0
 10
15669.59788077397
 20
-6948.924036084801
 10
15666.02067312867
 20
-6948.268144411402
 10
15662.73519575377
 20
-6946.827285211103
 10
15659.92563427727
 20
-6944.693175474004
 10
15657.73260257717
 20
-6941.990898829202
 10
15656.25839268737
 20
-6938.861461602103
 10
15655.57896452127
 20
-6935.482968278202
  0
LWPOLYLINE
  5
E035
330
1F
100
AcDbEntity
  8
0
  6
Continuous
 62
     7
100
AcDbPolyline
 90
        7
 70
     0
 43
0.0
 10
15669.08430572618
 20
-6953.475947806403
 10
15664.41047206577
 20
-6952.607791062103
 10
15660.07664469757
 20
-6950.686705043704
 10
15656.35765710807
 20
-6947.834857136102
 10
15653.44715077267
 20
-6944.221115286502
 10
15651.48434951457
 20
-6940.039380069702
 10
15650.57108374637
 20
-6935.554647057803
  0
LINE
  5
E036
330
1F
100
AcDbEntity
  8
0
  6
Continuous
 62
     7
100
AcDbLine
 10
16004.09644283027
 20
-6948.923943772303
 30
0.0
 11
15875.64231005487
 21
-6957.920201036502
 31
0.0
  0
LINE
  5
E037
330
1F
100
AcDbEntity
  8
0
  6
Continuous
 62
     7
100
AcDbLine
 10
15813.87172906167
 20
-6957.920200669203
 30
0.0
 11
15875.64231005487
 21
-6957.920201036502
 31
0.0
  0
LWPOLYLINE
  5
E038
330
1F
100
AcDbEntity
  8
0
  6
Continuous
 62
     7
100
AcDbPolyline
 90
        3
 70
     0
 43
0.0
 10
15813.87172906167
 20
-6957.920200669203
 10
15806.37725437217
 20
-6957.612441577804
 10
15799.43591118297
 20
-6957.281304821801
  0
LINE
  5
E039
330
1F
100
AcDbEntity
  8
0
  6
Continuous
 62
     7
100
AcDbLine
 10
15799.43591118297
 20
-6957.281304821801
 30
0.0
 11
15784.86305284127
 21
-6956.489597518203
 31
0.0
  0
LINE
  5
E03A
330
1F
100
AcDbEntity
  8
0
  6
Continuous
 62
     7
100
AcDbLine
 10
15784.86305284127
 20
-6956.489597518203
 30
0.0
 11
15770.72360519787
 21
-6955.644088438901
 31
0.0
  0
LINE
  5
E03B
330
1F
100
AcDbEntity
  8
0
  6
Continuous
 62
     7
100
AcDbLine
 10
15770.72360519787
 20
-6955.644088438901
 30
0.0
 11
15751.43696319437
 21
-6954.423244217804
 31
0.0
  0
LINE
  5
E03C
330
1F
100
AcDbEntity
  8
0
  6
Continuous
 62
     7
100
AcDbLine
 10
15751.43696319437
 20
-6954.423244217804
 30
0.0
 11
15718.07831389667
 21
-6952.218896905302
 31
0.0
  0
LINE
  5
E03D
330
1F
100
AcDbEntity
  8
0
  6
Continuous
 62
     7
100
AcDbLine
 10
15718.07831389667
 20
-6952.218896905302
 30
0.0
 11
15669.59787115867
 21
-6948.924036143002
 31
0.0
  0
LINE
  5
E03E
330
1F
100
AcDbEntity
  8
0
  6
Continuous
 62
     7
100
AcDbLine
 10
15799.73543429747
 20
-6989.604340248503
 30
0.0
 11
15799.94657687627
 21
-6992.017710967203
 31
0.0
  0
LINE
  5
E03F
330
1F
100
AcDbEntity
  8
0
  6
Continuous
 62
     7
100
AcDbLine
 10
15813.52669614138
 20
-6962.472211932102
 30
0.0
 11
15813.92856657847
 21
-6980.959731959403
 31
0.0
  0
LINE
  5
E040
330
1F
100
AcDbEntity
  8
0
  6
Continuous
 62
     7
100
AcDbLine
 10
15816.14132050457
 20
-6962.472208453903
 30
0.0
 11
15816.59161780588
 21
-6980.959731800801
 31
0.0
  0
LWPOLYLINE
  5
E041
330
1F
100
AcDbEntity
  8
0
  6
Continuous
 62
     7
100
AcDbPolyline
 90
       10
 70
     0
 43
0.0
 10
15816.59161780588
 20
-6980.959731800801
 10
15816.49244075647
 20
-6982.292477281602
 10
15816.13128017377
 20
-6983.607567837701
 10
15815.51005719077
 20
-6984.876404007803
 10
15814.67059496247
 20
-6986.050114335402
 10
15813.64902452877
 20
-6987.110927711502
 10
15812.46164081977
 20
-6988.046939539902
 10
15811.12222458058
 20
-6988.824207123103
 10
15809.64179982717
 20
-6989.380466469701
 10
15808.02952974227
 20
-6989.6043599065
  0
LWPOLYLINE
  5
E042
330
1F
100
AcDbEntity
  8
0
  6
Continuous
 62
     7
100
AcDbPolyline
 90
       10
 70
     0
 43
0.0
 10
15813.92856657527
 20
-6980.959731798304
 10
15813.84318589677
 20
-6981.625214022503
 10
15813.45936571397
 20
-6982.275243495002
 10
15812.78434077717
 20
-6982.894893540103
 10
15811.86401184367
 20
-6983.460508960503
 10
15810.73825705517
 20
-6983.964247581702
 10
15809.42600836257
 20
-6984.400322111103
 10
15807.94316076407
 20
-6984.751842446901
 10
15806.30221499597
 20
-6984.987683883803
 10
15804.51297900877
 20
-6985.052376601601
  0
LINE
  5
E043
330
1F
100
AcDbEntity
  8
0
  6
Continuous
 62
     7
100
AcDbLine
 10
15623.84929306093
 20
-6814.790042310503
 30
0.0
 11
15623.61302113042
 21
-6814.756244206002
 31
0.0
  0
LINE
  5
E044
330
1F
100
AcDbEntity
  8
0
  6
Continuous
 62
     7
100
AcDbLine
 10
15871.01065484477
 20
-6962.472205070501
 30
0.0
 11
15868.42575802067
 21
-6992.017710967203
 31
0.0
  0
LINE
  5
E045
330
1F
100
AcDbEntity
  8
0
  6
Continuous
 62
     7
100
AcDbLine
 10
16056.18616744853
 20
-6814.756243738902
 30
0.0
 11
15612.18616744852
 21
-6814.756243738902
 31
0.0
  0
LINE
  5
E046
330
1F
100
AcDbEntity
  8
0
  6
Continuous
 62
     7
100
AcDbLine
 10
16059.18616744852
 20
-6811.756243738902
 30
0.0
 11
15609.18616744852
 21
-6811.756243738902
 31
0.0
  0
LINE
  5
E047
330
1F
100
AcDbEntity
  8
0
  6
Continuous
 62
     7
100
AcDbLine
 10
15609.18616744852
 20
-6805.756243738902
 30
0.0
 11
16059.18616744852
 21
-6805.756243738902
 31
0.0
  0
LINE
  5
E048
330
1F
100
AcDbEntity
  8
0
  6
Continuous
 62
     7
100
AcDbLine
 10
15615.18616744852
 20
-6799.756243738902
 30
0.0
 11
16053.18616744852
 21
-6799.756243738902
 31
0.0
  0
LINE
  5
E049
330
1F
100
AcDbEntity
  8
0
  6
Continuous
 62
     7
100
AcDbLine
 10
16028.91502538352
 20
-6817.248789517602
 30
0.0
 11
16017.97103406577
 21
-6935.482968210902
 31
0.0
  0
LINE
  5
E04A
330
1F
100
AcDbEntity
  8
0
  6
Continuous
 62
     7
100
AcDbLine
 10
16059.18616744852
 20
-6811.756243738902
 30
0.0
 11
16059.18616744852
 21
-6805.756243738902
 31
0.0
  0
CIRCLE
  5
E04B
102
{ACAD_REACTORS
330
E0AA
102
}
330
1F
100
AcDbEntity
  8
0
  6
Continuous
 62
     7
100
AcDbCircle
 10
16579.91925865918
 20
-6336.361846950593
 30
0.0
 40
225.0
  0
CIRCLE
  5
E04C
102
{ACAD_REACTORS
330
E0A7
102
}
330
1F
100
AcDbEntity
  8
0
  6
Continuous
 62
     7
100
AcDbCircle
 10
16579.91925865918
 20
-6336.361846950593
 30
0.0
 40
184.9063374304
  0
CIRCLE
  5
E04D
102
{ACAD_REACTORS
330
E0AD
102
}
330
1F
100
AcDbEntity
  8
0
  6
Continuous
 62
     7
100
AcDbCircle
 10
16579.91925865918
 20
-6336.361846950593
 30
0.0
 40
34.0
  0
CIRCLE
  5
E04E
102
{ACAD_REACTORS
330
E0B0
102
}
330
1F
100
AcDbEntity
  8
0
  6
Continuous
 62
     7
100
AcDbCircle
 10
16579.91925865918
 20
-6336.361846950593
 30
0.0
 40
22.25
  0
ARC
  5
E04F
330
1F
100
AcDbEntity
  8
0
  6
Continuous
 62
     7
100
AcDbCircle
 10
16411.05693811873
 20
-6933.960595529002
 30
0.0
 40
15.0
100
AcDbArc
 50
185.8250648486619
 51
265.993843884971
  0
ARC
  5
E050
330
1F
100
AcDbEntity
  8
0
  6
Continuous
 62
     7
100
AcDbCircle
 10
16416.51345730813
 20
-6928.328045051102
 30
0.0
 40
10.0
100
AcDbArc
 50
185.8250648486619
 51
265.993843884971
  0
ARC
  5
E051
330
1F
100
AcDbEntity
  8
0
  6
Continuous
 62
     7
100
AcDbCircle
 10
16551.66925865913
 20
-6960.354568519602
 30
0.0
 40
6.0
100
AcDbArc
 50
0.0
 51
48.50000000006646
  0
ARC
  5
E052
330
1F
100
AcDbEntity
  8
0
  6
Continuous
 62
     7
100
AcDbCircle
 10
16564.91925865913
 20
-6965.756243738903
 30
0.0
 40
5.0
100
AcDbArc
 50
90.0
 51
180.0
  0
ARC
  5
E053
330
1F
100
AcDbEntity
  8
0
  6
Continuous
 62
     7
100
AcDbCircle
 10
16564.91925865913
 20
-6970.756243738903
 30
0.0
 40
5.0
100
AcDbArc
 50
180.0
 51
270.0
  0
ARC
  5
E054
330
1F
100
AcDbEntity
  8
0
  6
Continuous
 62
     7
100
AcDbCircle
 10
16538.11379777233
 20
-6962.907983784204
 30
0.0
 40
5.0
100
AcDbArc
 50
4.999999999972366
 51
85.99384388497105
  0
ARC
  5
E055
330
1F
100
AcDbEntity
  8
0
  6
Continuous
 62
     7
100
AcDbCircle
 10
16548.66825218123
 20
-6991.756243738902
 30
0.0
 40
3.0
100
AcDbArc
 50
184.9999999999724
 51
270.0
  0
ARC
  5
E056
330
1F
100
AcDbEntity
  8
0
  6
Continuous
 62
     7
100
AcDbCircle
 10
16543.64606200693
 20
-6953.256243738903
 30
0.0
 40
6.0
100
AcDbArc
 50
48.50000000006646
 51
90.0
  0
ARC
  5
E057
330
1F
100
AcDbEntity
  8
0
  6
Continuous
 62
     7
100
AcDbCircle
 10
16389.04390279848
 20
-6805.756243738902
 30
0.0
 40
6.0
100
AcDbArc
 50
5.825064848661962
 51
90.0
  0
ARC
  5
E058
330
1F
100
AcDbEntity
  8
0
  6
Continuous
 62
     7
100
AcDbCircle
 10
16360.91925865918
 20
-6805.756243738902
 30
0.0
 40
6.0
100
AcDbArc
 50
90.0
 51
180.0
  0
ARC
  5
E059
330
1F
100
AcDbEntity
  8
0
  6
Continuous
 62
     7
100
AcDbCircle
 10
16366.99020478828
 20
-6817.756243738902
 30
0.0
 40
5.0
100
AcDbArc
 50
90.0
 51
134.4183218654779
  0
ARC
  5
E05A
330
1F
100
AcDbEntity
  8
0
  6
Continuous
 62
     7
100
AcDbCircle
 10
16380.21621835788
 20
-6817.756243738902
 30
0.0
 40
5.0
100
AcDbArc
 50
5.825064848661962
 51
90.0
  0
ARC
  5
E05B
330
1F
100
AcDbEntity
  8
0
  6
Continuous
 62
     7
100
AcDbCircle
 10
16357.91925865918
 20
-6811.756243738902
 30
0.0
 40
3.0
100
AcDbArc
 50
180.0
 51
270.0
  0
ARC
  5
E05C
330
1F
100
AcDbEntity
  8
0
  6
Continuous
 62
     7
100
AcDbCircle
 10
16362.09070987988
 20
-6812.756243738903
 30
0.0
 40
2.0
100
AcDbArc
 50
270.0
 51
314.4183218654779
  0
ARC
  5
E05D
330
1F
100
AcDbEntity
  8
0
  6
Continuous
 62
     7
100
AcDbCircle
 10
16748.78157919953
 20
-6933.960595529002
 30
0.0
 40
15.0
100
AcDbArc
 50
274.006156115029
 51
354.174935151338
  0
ARC
  5
E05E
330
1F
100
AcDbEntity
  8
0
  6
Continuous
 62
     7
100
AcDbCircle
 10
16743.32506001013
 20
-6928.328045051102
 30
0.0
 40
10.0
100
AcDbArc
 50
274.006156115029
 51
354.174935151338
  0
ARC
  5
E05F
330
1F
100
AcDbEntity
  8
0
  6
Continuous
 62
     7
100
AcDbCircle
 10
16608.16925865913
 20
-6960.354568519602
 30
0.0
 40
6.0
100
AcDbArc
 50
131.4999999999335
 51
180.0
  0
ARC
  5
E060
330
1F
100
AcDbEntity
  8
0
  6
Continuous
 62
     7
100
AcDbCircle
 10
16616.19245531133
 20
-6953.256243738903
 30
0.0
 40
6.0
100
AcDbArc
 50
90.0
 51
131.4999999999335
  0
ARC
  5
E061
330
1F
100
AcDbEntity
  8
0
  6
Continuous
 62
     7
100
AcDbCircle
 10
16594.91925865913
 20
-6970.756243738903
 30
0.0
 40
5.0
100
AcDbArc
 50
270.0
 51
0.0
  0
ARC
  5
E062
330
1F
100
AcDbEntity
  8
0
  6
Continuous
 62
     7
100
AcDbCircle
 10
16594.91925865913
 20
-6965.756243738903
 30
0.0
 40
5.0
100
AcDbArc
 50
0.0
 51
90.0
  0
ARC
  5
E063
330
1F
100
AcDbEntity
  8
0
  6
Continuous
 62
     7
100
AcDbCircle
 10
16621.72471954593
 20
-6962.907983784204
 30
0.0
 40
5.0
100
AcDbArc
 50
94.00615611502896
 51
175.0000000000276
  0
ARC
  5
E064
330
1F
100
AcDbEntity
  8
0
  6
Continuous
 62
     7
100
AcDbCircle
 10
16611.17026513703
 20
-6991.756243738902
 30
0.0
 40
3.0
100
AcDbArc
 50
270.0
 51
355.0000000000276
  0
CIRCLE
  5
E065
102
{ACAD_REACTORS
330
E0B3
102
}
330
1F
100
AcDbEntity
  8
0
  6
Continuous
 62
     7
100
AcDbCircle
 10
16579.91925865918
 20
-6837.256243738902
 30
0.0
 40
11.5
  0
ARC
  5
E066
330
1F
100
AcDbEntity
  8
0
  6
Continuous
 62
     7
100
AcDbCircle
 10
16770.79461451988
 20
-6805.756243738902
 30
0.0
 40
6.0
100
AcDbArc
 50
90.0
 51
174.174935151338
  0
ARC
  5
E067
330
1F
100
AcDbEntity
  8
0
  6
Continuous
 62
     7
100
AcDbCircle
 10
16798.91925865918
 20
-6805.756243738902
 30
0.0
 40
6.0
100
AcDbArc
 50
0.0
 51
90.0
  0
ARC
  5
E068
330
1F
100
AcDbEntity
  8
0
  6
Continuous
 62
     7
100
AcDbCircle
 10
16792.84831253008
 20
-6817.756243738902
 30
0.0
 40
5.0
100
AcDbArc
 50
45.58167813452215
 51
90.0
  0
ARC
  5
E069
330
1F
100
AcDbEntity
  8
0
  6
Continuous
 62
     7
100
AcDbCircle
 10
16779.62229896048
 20
-6817.756243738902
 30
0.0
 40
5.0
100
AcDbArc
 50
90.0
 51
174.174935151338
  0
ARC
  5
E06A
330
1F
100
AcDbEntity
  8
0
  6
Continuous
 62
     7
100
AcDbCircle
 10
16801.91925865918
 20
-6811.756243738902
 30
0.0
 40
3.0
100
AcDbArc
 50
270.0
 51
0.0
  0
ARC
  5
E06B
330
1F
100
AcDbEntity
  8
0
  6
Continuous
 62
     7
100
AcDbCircle
 10
16797.74780743848
 20
-6812.756243738903
 30
0.0
 40
2.0
100
AcDbArc
 50
225.5816781345222
 51
270.0
  0
CIRCLE
  5
E06C
330
1F
100
AcDbEntity
  8
0
  6
Continuous
 62
     7
100
AcDbCircle
 10
16579.91925865918
 20
-7385.531801903678
 30
0.0
 40
225.0
  0
ARC
  5
E06D
330
1F
100
AcDbEntity
  8
0
  6
Continuous
 62
     7
100
AcDbCircle
 10
16579.91925865918
 20
-7385.531801903678
 30
0.0
 40
218.249692176
100
AcDbArc
 50
257.7353353006945
 51
282.2646647065628
  0
ARC
  5
E06E
330
1F
100
AcDbEntity
  8
0
  6
Continuous
 62
     7
100
AcDbCircle
 10
16579.91925865918
 20
-7385.531801903678
 30
0.0
 40
215.2623866585
100
AcDbArc
 50
257.7352347065818
 51
282.2649710157169
  0
ARC
  5
E06F
330
1F
100
AcDbEntity
  8
0
  6
Continuous
 62
     7
100
AcDbCircle
 10
16579.91925865918
 20
-7385.531801903678
 30
0.0
 40
194.7288579531
100
AcDbArc
 50
285.7437362781583
 51
254.2562637218416
  0
ARC
  5
E070
330
1F
100
AcDbEntity
  8
0
  6
Continuous
 62
     7
100
AcDbCircle
 10
16579.91925865918
 20
-7385.531801903678
 30
0.0
 40
183.7848666173
100
AcDbArc
 50
283.6324708055287
 51
256.3675291944713
  0
ARC
  5
E071
330
1F
100
AcDbEntity
  8
0
  6
Continuous
 62
     7
100
AcDbCircle
 10
16579.91925865918
 20
-7385.531801903678
 30
0.0
 40
41.4561426063
100
AcDbArc
 50
330.6579495200332
 51
209.3420496275166
  0
ARC
  5
E072
330
1F
100
AcDbEntity
  8
0
  6
Continuous
 62
     7
100
AcDbCircle
 10
16579.91925865918
 20
-7385.531801903678
 30
0.0
 40
39.082388361
100
AcDbArc
 50
229.3979090364179
 51
310.6038188587988
  0
ARC
  5
E073
330
1F
100
AcDbEntity
  8
0
  6
Continuous
 62
     7
100
AcDbCircle
 10
16579.91925865918
 20
-7385.531801903678
 30
0.0
 40
36.8244861454
100
AcDbArc
 50
330.6579043015249
 51
209.3420956324941
  0
CIRCLE
  5
E074
330
1F
100
AcDbEntity
  8
0
  6
Continuous
 62
     7
100
AcDbCircle
 10
16579.91925865918
 20
-7385.531801903678
 30
0.0
 40
35.18942584840277
  0
CIRCLE
  5
E075
330
1F
100
AcDbEntity
  8
0
  6
Continuous
 62
     7
100
AcDbCircle
 10
16579.91925865918
 20
-7385.531801903678
 30
0.0
 40
31.250972991
  0
CIRCLE
  5
E076
330
1F
100
AcDbEntity
  8
0
  6
Continuous
 62
     7
100
AcDbCircle
 10
16579.91925865918
 20
-7385.531801903678
 30
0.0
 40
22.25
  0
ARC
  5
E077
330
1F
100
AcDbEntity
  8
0
  6
Continuous
 62
     7
100
AcDbCircle
 10
17105.02396291586
 20
-6933.960595529002
 30
0.0
 40
15.0
100
AcDbArc
 50
185.8250648486619
 51
265.993843884971
  0
ARC
  5
E078
330
1F
100
AcDbEntity
  8
0
  6
Continuous
 62
     7
100
AcDbCircle
 10
17110.48048210526
 20
-6928.328045051102
 30
0.0
 40
10.0
100
AcDbArc
 50
185.8250648480346
 51
265.9938438911342
  0
ARC
  5
E079
330
1F
100
AcDbEntity
  8
0
  6
Continuous
 62
     7
100
AcDbCircle
 10
17245.63628345626
 20
-6960.354568519602
 30
0.0
 40
6.0
100
AcDbArc
 50
0.0
 51
48.50000000006646
  0
ARC
  5
E07A
330
1F
100
AcDbEntity
  8
0
  6
Continuous
 62
     7
100
AcDbCircle
 10
17237.61308680416
 20
-6953.256243738903
 30
0.0
 40
6.0
100
AcDbArc
 50
48.50000000006646
 51
90.0
  0
ARC
  5
E07B
330
1F
100
AcDbEntity
  8
0
  6
Continuous
 62
     7
100
AcDbCircle
 10
17232.08082256956
 20
-6962.907983784204
 30
0.0
 40
5.0
100
AcDbArc
 50
4.999999999972366
 51
85.99384388497105
  0
ARC
  5
E07C
330
1F
100
AcDbEntity
  8
0
  6
Continuous
 62
     7
100
AcDbCircle
 10
17242.63527697836
 20
-6991.756243738902
 30
0.0
 40
3.0
100
AcDbArc
 50
185.0000000181785
 51
269.999999985826
  0
ARC
  5
E07D
330
1F
100
AcDbEntity
  8
0
  6
Continuous
 62
     7
100
AcDbCircle
 10
17083.01092759561
 20
-6805.756243738902
 30
0.0
 40
6.0
100
AcDbArc
 50
5.825064846670843
 51
89.99999999864513
  0
ARC
  5
E07E
330
1F
100
AcDbEntity
  8
0
  6
Continuous
 62
     7
100
AcDbCircle
 10
17054.88628345631
 20
-6805.756243738902
 30
0.0
 40
6.0
100
AcDbArc
 50
90.00000000052109
 51
180.0
  0
ARC
  5
E07F
330
1F
100
AcDbEntity
  8
0
  6
Continuous
 62
     7
100
AcDbCircle
 10
17060.95722958541
 20
-6817.756243738902
 30
0.0
 40
5.0
100
AcDbArc
 50
90.0
 51
134.4183218654779
  0
ARC
  5
E080
330
1F
100
AcDbEntity
  8
0
  6
Continuous
 62
     7
100
AcDbCircle
 10
17074.18324315501
 20
-6817.756243738902
 30
0.0
 40
5.0
100
AcDbArc
 50
5.825064848661962
 51
90.0
  0
ARC
  5
E081
330
1F
100
AcDbEntity
  8
0
  6
Continuous
 62
     7
100
AcDbCircle
 10
17051.88628345631
 20
-6811.756243738902
 30
0.0
 40
3.0
100
AcDbArc
 50
180.0
 51
270.0
  0
ARC
  5
E082
330
1F
100
AcDbEntity
  8
0
  6
Continuous
 62
     7
100
AcDbCircle
 10
17056.05773467701
 20
-6812.756243738903
 30
0.0
 40
2.0
100
AcDbArc
 50
270.0
 51
314.4183218654779
  0
ARC
  5
E083
330
1F
100
AcDbEntity
  8
0
  6
Continuous
 62
     7
100
AcDbCircle
 10
17448.20730039476
 20
-6945.507445196203
 30
0.0
 40
30.0
100
AcDbArc
 50
274.006156115029
 51
354.7225122633488
  0
ARC
  5
E084
330
1F
100
AcDbEntity
  8
0
  6
Continuous
 62
     7
100
AcDbCircle
 10
17435.47324507756
 20
-6926.450528225203
 30
0.0
 40
20.0
100
AcDbArc
 50
274.006156115029
 51
354.174935151338
  0
ARC
  5
E085
330
1F
100
AcDbEntity
  8
0
  6
Continuous
 62
     7
100
AcDbCircle
 10
17450.13425210156
 20
-6947.477635366903
 30
0.0
 40
20.0
100
AcDbArc
 50
274.006156115029
 51
354.7225122633488
  0
ARC
  5
E086
330
1F
100
AcDbEntity
  8
0
  6
Continuous
 62
     7
100
AcDbCircle
 10
17437.29208480736
 20
-6928.328045051102
 30
0.0
 40
10.0
100
AcDbArc
 50
274.0061561088658
 51
354.1749351519654
  0
ARC
  5
E087
330
1F
100
AcDbEntity
  8
0
  6
Continuous
 62
     7
100
AcDbCircle
 10
17302.13628345626
 20
-6960.354568519602
 30
0.0
 40
6.0
100
AcDbArc
 50
131.4999999999335
 51
180.0
  0
ARC
  5
E088
330
1F
100
AcDbEntity
  8
0
  6
Continuous
 62
     7
100
AcDbCircle
 10
17310.15948010846
 20
-6953.256243738903
 30
0.0
 40
6.0
100
AcDbArc
 50
90.0
 51
131.4999999999335
  0
ARC
  5
E089
330
1F
100
AcDbEntity
  8
0
  6
Continuous
 62
     7
100
AcDbCircle
 10
17313.31799009776
 20
-6990.040118962302
 30
0.0
 40
5.0
100
AcDbArc
 50
94.00615611502896
 51
175.0000000000276
  0
ARC
  5
E08A
330
1F
100
AcDbEntity
  8
0
  6
Continuous
 62
     7
100
AcDbCircle
 10
17305.13728993426
 20
-6991.756243738902
 30
0.0
 40
3.0
100
AcDbArc
 50
270.000000014174
 51
354.9999999884124
  0
ARC
  5
E08B
330
1F
100
AcDbEntity
  8
0
  6
Continuous
 62
     7
100
AcDbCircle
 10
17464.76163931711
 20
-6805.756243738902
 30
0.0
 40
6.0
100
AcDbArc
 50
90.00000000125064
 51
174.1749351531165
  0
ARC
  5
E08C
330
1F
100
AcDbEntity
  8
0
  6
Continuous
 62
     7
100
AcDbCircle
 10
17492.88628345631
 20
-6805.756243738902
 30
0.0
 40
6.0
100
AcDbArc
 50
0.0
 51
89.9999999994789
  0
ARC
  5
E08D
330
1F
100
AcDbEntity
  8
0
  6
Continuous
 62
     7
100
AcDbCircle
 10
17492.13595266391
 20
-6817.756243738902
 30
0.0
 40
3.0
100
AcDbArc
 50
90.0
 51
174.7225122633488
  0
ARC
  5
E08E
102
{ACAD_REACTORS
330
E0C0
102
}
330
1F
100
AcDbEntity
  8
0
  6
Continuous
 62
     7
100
AcDbCircle
 10
17495.88628345631
 20
-6811.756243738902
 30
0.0
 40
3.0
100
AcDbArc
 50
270.0000000059405
 51
0.0
  0
ARC
  5
E08F
330
1F
100
AcDbEntity
  8
0
  6
Continuous
 62
     7
100
AcDbCircle
 10
15659.86515051007
 20
-6945.507445196203
 30
0.0
 40
30.0
100
AcDbArc
 50
185.2774877366512
 51
265.993843884971
  0
ARC
  5
E090
330
1F
100
AcDbEntity
  8
0
  6
Continuous
 62
     7
100
AcDbCircle
 10
15794.75446080707
 20
-6990.040118962302
 30
0.0
 40
5.0
100
AcDbArc
 50
5.00000000813421
 51
85.99384388497105
  0
ARC
  5
E091
330
1F
100
AcDbEntity
  8
0
  6
Continuous
 62
     7
100
AcDbCircle
 10
15802.93516097057
 20
-6991.756243738902
 30
0.0
 40
3.0
100
AcDbArc
 50
185.0000000088655
 51
270.0
  0
ARC
  5
E092
330
1F
100
AcDbEntity
  8
0
  6
Continuous
 62
     7
100
AcDbCircle
 10
15615.18616744852
 20
-6805.756243738902
 30
0.0
 40
6.0
100
AcDbArc
 50
90.0
 51
180.0
  0
ARC
  5
E093
330
1F
100
AcDbEntity
  8
0
  6
Continuous
 62
     7
100
AcDbCircle
 10
15612.18616744852
 20
-6811.756243738902
 30
0.0
 40
3.0
100
AcDbArc
 50
180.0
 51
270.0
  0
ARC
  5
E094
330
1F
100
AcDbEntity
  8
0
  6
Continuous
 62
     7
100
AcDbCircle
 10
15615.93649824103
 20
-6817.756243738902
 30
0.0
 40
3.0
100
AcDbArc
 50
5.277528389758363
 51
90.0
  0
ARC
  5
E095
330
1F
100
AcDbEntity
  8
0
  6
Continuous
 62
     7
100
AcDbCircle
 10
16003.04848798887
 20
-6933.960595529002
 30
0.0
 40
15.0
100
AcDbArc
 50
274.006156115029
 51
354.174935151338
  0
ARC
  5
E096
330
1F
100
AcDbEntity
  8
0
  6
Continuous
 62
     7
100
AcDbCircle
 10
15875.99162833527
 20
-6962.907983784204
 30
0.0
 40
5.0
100
AcDbArc
 50
94.00615611502896
 51
174.9999999998154
  0
ARC
  5
E097
330
1F
100
AcDbEntity
  8
0
  6
Continuous
 62
     7
100
AcDbCircle
 10
15865.43717392647
 20
-6991.756243738902
 30
0.0
 40
3.0
100
AcDbArc
 50
270.0
 51
354.999999973452
  0
ARC
  5
E098
330
1F
100
AcDbEntity
  8
0
  6
Continuous
 62
     7
100
AcDbCircle
 10
16053.18616744852
 20
-6805.756243738902
 30
0.0
 40
6.0
100
AcDbArc
 50
0.0
 51
90.0
  0
ARC
  5
E099
330
1F
100
AcDbEntity
  8
0
  6
Continuous
 62
     7
100
AcDbCircle
 10
16033.88920774983
 20
-6817.756243738902
 30
0.0
 40
5.0
100
AcDbArc
 50
142.3943534320756
 51
174.1749736161463
  0
ARC
  5
E09A
330
1F
100
AcDbEntity
  8
0
  6
Continuous
 62
     7
100
AcDbCircle
 10
16056.18616744853
 20
-6811.756243738902
 30
0.0
 40
3.0
100
AcDbArc
 50
270.0
 51
0.0
  0
LINE
  5
E09B
330
1F
100
AcDbEntity
  8
中心线
100
AcDbLine
 10
16844.25166378009
 20
-6336.361846950593
 30
0.0
 11
16315.58685353827
 21
-6336.361846950593
 31
0.0
  0
LINE
  5
E09C
330
1F
100
AcDbEntity
  8
中心线
100
AcDbLine
 10
16579.91925865918
 20
-6592.835985124747
 30
0.0
 11
16579.91925865918
 21
-6079.887708776439
 31
0.0
  0
LINE
  5
E09D
330
1F
100
AcDbEntity
  8
中心线
100
AcDbLine
 10
16844.25166378009
 20
-7385.531801903678
 30
0.0
 11
16315.58685353827
 21
-7385.531801903678
 31
0.0
  0
LINE
  5
E09E
330
1F
100
AcDbEntity
  8
中心线
100
AcDbLine
 10
16579.91925865918
 20
-7642.005940077831
 30
0.0
 11
16579.91925865918
 21
-7129.057663729525
 31
0.0
  0
LWPOLYLINE
  5
E09F
330
1F
100
AcDbEntity
  8
0
  6
Continuous
 62
     7
100
AcDbPolyline
 90
        4
 70
     0
 43
0.0
 10
16611.38353595618
 20
-7406.191272364079
 10
16611.43583207028
 20
-7405.286005054779
 10
16611.65017493198
 20
-7404.404800123778
 10
16612.01951302998
 20
-7403.576648708081
  0
LWPOLYLINE
  5
E0A0
330
1F
100
AcDbEntity
  8
0
  6
Continuous
 62
     7
100
AcDbPolyline
 90
        4
 70
     0
 43
0.0
 10
16609.75100916088
 20
-7405.789404823879
 10
16609.80618679058
 20
-7404.865819716779
 10
16610.03004279578
 20
-7403.967934604179
 10
16610.41490796078
 20
-7403.126514827881
  0
LINE
  5
E0A1
330
1F
100
AcDbEntity
  8
中心线
100
AcDbLine
 10
15834.18616744852
 20
-7051.136610426015
 30
0.0
 11
15834.18616744858
 21
-6719.584552266223
 31
0.0
  0
LINE
  5
E0A2
102
{ACAD_REACTORS
330
E0BA
102
}
330
1F
100
AcDbEntity
  8
中心线
100
AcDbLine
 10
16579.91925910487
 20
-7043.610254106956
 30
0.0
 11
16579.91925910492
 21
-6712.058195947164
 31
0.0
  0
LINE
  5
E0A3
102
{ACAD_REACTORS
330
E0C0
102
}
330
1F
100
AcDbEntity
  8
中心线
100
AcDbLine
 10
17273.88628390205
 20
-7057.517498640992
 30
0.0
 11
17273.8862839021
 21
-6725.9654404812
 31
0.0
  0
LINE
  5
E0A4
330
1F
100
AcDbEntity
  8
中心线
100
AcDbLine
 10
17993.61332341875
 20
-7067.376489413233
 30
0.0
 11
17993.6133234188
 21
-6735.82443125344
 31
0.0
  0
DIMENSION
  5
E0A5
102
{ACAD_XDICTIONARY
360
E0A6
102
}
102
{ACAD_REACTORS
330
E0A7
102
}
330
1F
100
AcDbEntity
  8
尺寸标注层
100
AcDbDimension
  2
*D20
 10
16496.58923843967
 20
-6171.296825361704
 30
0.0
 11
16733.70782460969
 21
-6640.995313879727
 31
0.0
 70
   163
 71
     5
 42
369.8126748608
 73
     0
 74
     0
 75
     0
  3
宋体
100
AcDbDiametricDimension
 15
16663.24927887869
 25
-6501.426868539482
 35
0.0
 40
0.0
1001
ACAD
1000
DSTYLE
1002
{
1070
    41
1040
40.0
1070
    47
1040
6.0
1070
    48
1040
6.0
1070
    71
1070
     1
1070
   288
1070
     1
1002
}
  0
DIMENSION
  5
E0A8
102
{ACAD_XDICTIONARY
360
E0A9
102
}
102
{ACAD_REACTORS
330
E0AA
102
}
330
1F
100
AcDbEntity
  8
尺寸标注层
100
AcDbDimension
  2
*D21
 10
16418.59600165118
 20
-6179.518591602053
 30
0.0
 11
16842.99191743848
 21
-6592.128888612132
 31
0.0
 70
   163
 71
     5
 42
450.0
 73
     0
 74
     0
 75
     0
  3
宋体
100
AcDbDiametricDimension
 15
16741.24251566718
 25
-6493.205102299139
 35
0.0
 40
0.0
1001
ACAD
1000
DSTYLE
1002
{
1070
    41
1040
40.0
1070
    47
1040
6.0
1070
   147
1040
20.0
1070
    48
1040
6.0
1070
    72
1070
     0
1070
    71
1070
     1
1070
   288
1070
     1
1002
}
  0
DIMENSION
  5
E0AB
102
{ACAD_XDICTIONARY
360
E0AC
102
}
102
{ACAD_REACTORS
330
E0AD
102
}
330
1F
100
AcDbEntity
  8
尺寸标注层
100
AcDbDimension
  2
*D22
 10
16552.45915231141
 20
-6356.410352116046
 30
0.0
 11
16849.04176247594
 21
-6139.876668066769
 31
0.0
 70
   163
 71
     5
 42
68.0
 73
     0
 74
     0
 75
     0
  3
宋体
100
AcDbDiametricDimension
 15
16607.37936500695
 25
-6316.313341785139
 35
0.0
 40
0.0
1001
ACAD
1000
DSTYLE
1002
{
1070
    41
1040
40.0
1070
    47
1040
2.0
1070
    48
1040
2.0
1070
    71
1070
     1
1070
   288
1070
     1
1002
}
  0
DIMENSION
  5
E0AE
102
{ACAD_XDICTIONARY
360
E0AF
102
}
102
{ACAD_REACTORS
330
E0B0
102
}
330
1F
100
AcDbEntity
  8
尺寸标注层
100
AcDbDimension
  2
*D23
 10
16559.13324918559
 20
-6344.299372393953
 30
0.0
 11
16842.99191743846
 21
-6235.902645045273
 31
0.0
 70
   163
 71
     5
 42
44.5
 73
     0
 74
     0
 75
     0
  3
宋体
100
AcDbDiametricDimension
 15
16600.70526813276
 25
-6328.424321507233
 35
0.0
 40
0.0
1001
ACAD
1000
DSTYLE
1002
{
1070
    41
1040
40.0
1070
    47
1040
0.5
1070
    48
1040
0.5
1070
    71
1070
     1
1070
   271
1070
     1
1070
   272
1070
     1
1070
   288
1070
     1
1002
}
  0
DIMENSION
  5
E0B1
102
{ACAD_XDICTIONARY
360
E0B2
102
}
102
{ACAD_REACTORS
330
E0B3
102
}
330
1F
100
AcDbEntity
  8
尺寸标注层
100
AcDbDimension
  2
*D24
 10
16574.64430412962
 20
-6847.475091751814
 30
0.0
 11
16638.26849298224
 21
-6724.219827239885
 31
0.0
 70
   163
 71
     5
 42
23.0
 73
     0
 74
     0
 75
     0
  3
宋体
100
AcDbDiametricDimension
 15
16585.19421318874
 25
-6827.037395725991
 35
0.0
 40
0.0
1001
ACAD
1000
DSTYLE
1002
{
1070
    41
1040
40.0
1070
    47
1040
0.5
1070
    48
1040
0.5
1070
    71
1070
     1
1070
   271
1070
     1
1070
   272
1070
     1
1070
   288
1070
     1
1002
}
  0
LINE
  5
E0B4
102
{ACAD_REACTORS
330
E0B7
102
}
330
1F
100
AcDbEntity
  8
中心线
100
AcDbLine
 10
16543.16866455064
 20
-6837.256243738902
 30
0.0
 11
16616.66985276772
 21
-6837.256243738902
 31
0.0
  0
DIMENSION
  5
E0B5
102
{ACAD_XDICTIONARY
360
E0B6
102
}
102
{ACAD_REACTORS
330
E0B7
102
}
330
1F
100
AcDbEntity
  8
尺寸标注层
100
AcDbDimension
  2
*D25
 10
16522.07393176839
 20
-6799.756243738902
 30
0.0
 11
16513.77363350249
 21
-6749.95405480741
 31
0.0
 70
   160
 71
     5
 42
37.5
 73
     0
 74
     0
 75
     0
  3
宋体
100
AcDbAlignedDimension
 13
16543.16866455064
 23
-6837.256243738902
 33
0.0
 14
16543.16866455064
 24
-6799.756243738902
 34
0.0
 50
90.0
100
AcDbRotatedDimension
1001
ACAD
1000
DSTYLE
1002
{
1070
    41
1040
40.0
1070
    47
1040
2.0
1070
    48
1040
2.0
1070
    71
1070
     1
1070
   271
1070
     1
1070
   272
1070
     1
1070
   288
1070
     1
1002
}
  0
DIMENSION
  5
E0B8
102
{ACAD_XDICTIONARY
360
E0B9
102
}
102
{ACAD_REACTORS
330
E0BA
102
}
330
1F
100
AcDbEntity
  8
尺寸标注层
100
AcDbDimension
  2
*D26
 10
16489.35977932304
 20
-6994.756243738902
 30
0.0
 11
16483.4209945856
 21
-7038.657729237868
 31
0.0
 70
   160
 71
     5
 42
47.5
 73
     0
 74
     0
 75
     0
  3
宋体
100
AcDbAlignedDimension
 13
16579.91925865913
 23
-6947.256243738903
 33
0.0
 14
16579.91925910487
 24
-6994.756243738902
 34
0.0
 50
90.0
100
AcDbRotatedDimension
1001
ACAD
1000
DSTYLE
1002
{
1070
    41
1040
40.0
1070
    47
1040
2.5
1070
    48
1040
2.5
1070
    71
1070
     1
1070
   271
1070
     1
1070
   272
1070
     1
1070
   288
1070
     1
1002
}
  0
DIMENSION
  5
E0BB
102
{ACAD_XDICTIONARY
360
E0BC
102
}
102
{ACAD_REACTORS
330
E0BD
102
}
330
1F
100
AcDbEntity
  8
尺寸标注层
100
AcDbDimension
  2
*D27
 10
16880.27344277565
 20
-6800.022376620603
 30
0.0
 11
16880.27344277565
 21
-6897.389310179753
 31
0.0
 70
    32
  1
195±6
 71
     5
 42
194.7338671183
 73
     0
 74
     0
 75
     0
  3
宋体
100
AcDbAlignedDimension
 13
16602.16925865913
 23
-6994.756243738902
 33
0.0
 14
16800.59955662498
 24
-6800.022376620603
 34
0.0
 50
90.0
100
AcDbRotatedDimension
1001
ACAD
1000
DSTYLE
1002
{
1070
    41
1040
40.0
1070
    47
1040
6.0
1070
    48
1040
6.0
1070
    71
1070
     1
1070
   288
1070
     1
1002
}
  0
DIMENSION
  5
E0BE
102
{ACAD_XDICTIONARY
360
E0BF
102
}
102
{ACAD_REACTORS
330
E0C0
102
}
330
1F
100
AcDbEntity
  8
尺寸标注层
100
AcDbDimension
  2
*D28
 10
17498.88628345631
 20
-7071.14172092676
 30
0.0
 11
17386.38628367918
 21
-7071.14172092676
 31
0.0
 70
    32
 71
     5
 42
224.9999995543
 73
     0
 74
     0
 75
     0
  3
宋体
100
AcDbAlignedDimension
 13
17273.88628390205
 23
-7057.517498640992
 33
0.0
 14
17498.88628345631
 24
-6811.756243738902
 34
0.0
100
AcDbRotatedDimension
1001
ACAD
1000
DSTYLE
1002
{
1070
    41
1040
40.0
1070
    47
1040
5.0
1070
    48
1040
5.0
1070
    71
1070
     1
1070
   288
1070
     1
1002
}
  0
MTEXT
  5
E0C5
330
1F
100
AcDbEntity
  8
细实线
100
AcDbMText
 10
16070.82616244079
 20
-7834.068167136255
 30
0.0
 40
20.0
 41
472.4513086158549
 46
0.0
 71
     1
 72
     5
  1
总高度由184%%P6改为195%%P6
 73
     1
 44
1.0
  0
MTEXT
  5
E0C6
330
1F
100
AcDbEntity
  8
尺寸标注
100
AcDbMText
 10
17320.62724170597
 20
-7214.629958198833
 30
0.0
 40
24.0
 41
914.743097216707
 46
0.0
 71
     1
 72
     5
  3
技术要求\P1.产品为台上台下共用盆，洗净面施釉，溢流管灌釉，台上盆时上表面施釉，台下盆时上表面不施釉；\P2.     区域需施易洁釉，（洗净面及上表面），按《AXENT产品易洁釉施釉规范》实施；\P3.贴AXENT4mm火花，位置如图所示；\P4.溢流孔大小横向或竖向任一方向符合
  1
公差要求即为合格；\P5.变形及外观要求按《AXENT检验标准》执行，未说明部分参考国标GB6952-2015
 73
     1
 44
1.0
  0
HATCH
  5
E0C7
330
1F
100
AcDbEntity
  8
虚线
100
AcDbHatch
 10
0.0
 20
0.0
 30
0.0
210
0.0
220
0.0
230
1.0
  2
CROSS
 70
     0
 71
     1
 91
        1
 92
        1
 93
        4
 72
     1
 10
17353.22071812297
 20
-7341.141279135209
 11
17436.12195836274
 21
-7341.141279135209
 72
     1
 10
17436.12195836274
 20
-7341.141279135209
 11
17436.12195836274
 21
-7388.214943257914
 72
     1
 10
17436.12195836274
 20
-7388.214943257914
 11
17353.22071812297
 21
-7388.214943257914
 72
     1
 10
17353.22071812297
 20
-7388.214943257914
 11
17353.22071812297
 21
-7341.141279135209
 97
        1
330
E0C8
 75
     0
 76
     1
 52
0.0
 41
1.0
 77
     0
 78
     2
 53
0.0
 43
10646.4187937791
 44
-9563.221962142478
 45
6.349999999999999
 46
6.349999999999999
 79
     2
 49
3.174999999999999
 49
-9.525
 53
90.0
 43
10648.00629377911
 44
-9564.809462142477
 45
-6.349999999999999
 46
6.349999999999999
 79
     2
 49
3.174999999999999
 49
-9.525
 98
        1
 10
10646.4187937791
 20
-9563.221962142478
  0
LWPOLYLINE
  5
E0C8
102
{ACAD_REACTORS
330
E0C7
102
}
330
1F
100
AcDbEntity
  8
0
 62
     0
370
    -3
100
AcDbPolyline
 90
        4
 70
     1
 43
0.0
 10
17353.22071812297
 20
-7341.141279135209
 10
17436.12195836274
 20
-7341.141279135209
 10
17436.12195836274
 20
-7388.214943257914
 10
17353.22071812297
 20
-7388.214943257914
  0
LINE
  5
E0C9
330
1F
100
AcDbEntity
  8
0
  6
Continuous
 62
     7
100
AcDbLine
 10
18024.8643298967
 20
-6994.756243738902
 30
0.0
 11
17962.3623169408
 21
-6994.756243738902
 31
0.0
  0
LINE
  5
E0CA
330
1F
100
AcDbEntity
  8
0
  6
Continuous
 62
     7
100
AcDbLine
 10
17959.3737329046
 20
-6992.017711631802
 30
0.0
 11
18027.852913989
 21
-6992.017710989803
 31
0.0
  0
ARC
  5
E0CB
330
1F
100
AcDbEntity
  8
0
  6
Continuous
 62
     7
100
AcDbCircle
 10
18024.8643298967
 20
-6991.756243738902
 30
0.0
 40
3.0
100
AcDbArc
 50
270.0
 51
354.9999995638195
  0
ARC
  5
E0CC
330
1F
100
AcDbEntity
  8
0
  6
Continuous
 62
     7
100
AcDbCircle
 10
17962.3623169408
 20
-6991.756243738902
 30
0.0
 40
3.0
100
AcDbArc
 50
185.0000127441834
 51
270.0
  0
LINE
  5
E0CD
330
1F
100
AcDbEntity
  8
中心线
100
AcDbLine
 10
17993.61332341875
 20
-7028.521479396585
 30
0.0
 11
17993.6133234188
 21
-6726.941226412657
 31
0.0
  0
LINE
  5
E0CE
330
1F
100
AcDbEntity
  8
0
  6
Continuous
 62
     7
100
AcDbLine
 10
17768.61332341885
 20
-6811.756243738803
 30
0.0
 11
17768.61332341885
 21
-6805.756243738803
 31
0.0
  0
LINE
  5
E0CF
330
1F
100
AcDbEntity
  8
0
  6
Continuous
 62
     7
100
AcDbLine
 10
17798.88446514316
 20
-6817.248786178203
 30
0.0
 11
17809.8284568015
 21
-6935.482968210902
 31
0.0
  0
LINE
  5
E0D0
330
1F
100
AcDbEntity
  8
0
  6
Continuous
 62
     7
100
AcDbLine
 10
17808.70698598885
 20
-6805.147294666102
 30
0.0
 11
17820.2591580165
 21
-6929.342960172402
 31
0.0
  0
LINE
  5
E0D1
330
1F
100
AcDbEntity
  8
0
  6
Continuous
 62
     2
100
AcDbLine
 10
17771.90534792275
 20
-6800.484974957503
 30
0.0
 11
17769.34205464865
 21
-6803.048268231501
 31
0.0
  0
LINE
  5
E0D2
330
1F
100
AcDbEntity
  8
0
  6
Continuous
 62
     2
100
AcDbLine
 10
17808.63455669995
 20
-6804.900356874103
 30
0.0
 11
17798.22664090775
 21
-6815.308272666301
 31
0.0
  0
LINE
  5
E0D3
330
1F
100
AcDbEntity
  8
0
  6
Continuous
 62
     2
100
AcDbLine
 10
17812.48634215795
 20
-6842.193162109904
 30
0.0
 11
17802.45284777466
 21
-6852.226656493101
 31
0.0
  0
LINE
  5
E0D4
330
1F
100
AcDbEntity
  8
0
  6
Continuous
 62
     7
100
AcDbLine
 10
17962.36231694081
 20
-6994.756243738902
 30
0.0
 11
18024.8643298967
 21
-6994.756243738902
 31
0.0
  0
LINE
  5
E0D5
330
1F
100
AcDbEntity
  8
0
  6
Continuous
 62
     7
100
AcDbLine
 10
17978.6133234188
 20
-6975.756243738903
 30
0.0
 11
18008.61332341881
 21
-6975.756243738903
 31
0.0
  0
LINE
  5
E0D6
330
1F
100
AcDbEntity
  8
0
  6
Continuous
 62
     2
100
AcDbLine
 10
17816.2952634301
 20
-6890.488216973503
 30
0.0
 11
17806.2617690469
 21
-6900.521711356804
 31
0.0
  0
LINE
  5
E0D7
330
1F
100
AcDbEntity
  8
0
  6
Continuous
 62
     7
100
AcDbLine
 10
18163.5235988005
 20
-6948.923943772303
 30
0.0
 11
18035.0694660251
 21
-6957.920201036403
 31
0.0
  0
LINE
  5
E0D8
330
1F
100
AcDbEntity
  8
0
  6
Continuous
 62
     7
100
AcDbLine
 10
18157.7177613307
 20
-6938.303610546602
 30
0.0
 11
18029.886520071
 21
-6947.256243738903
 31
0.0
  0
LINE
  5
E0D9
330
1F
100
AcDbEntity
  8
0
  6
Continuous
 62
     7
100
AcDbLine
 10
17978.6133234188
 20
-6960.756243738902
 30
0.0
 11
18008.61332341881
 21
-6960.756243738902
 31
0.0
  0
LINE
  5
E0DA
330
1F
100
AcDbEntity
  8
0
  6
Continuous
 62
     7
100
AcDbLine
 10
18015.8633234188
 20
-6960.354568519602
 30
0.0
 11
17971.36332341881
 21
-6960.354568519602
 31
0.0
  0
LINE
  5
E0DB
330
1F
100
AcDbEntity
  8
0
  6
Continuous
 62
     7
100
AcDbLine
 10
18017.8876031295
 20
-6955.860834194801
 30
0.0
 11
17969.3390437081
 21
-6955.860834194801
 31
0.0
  0
LINE
  5
E0DC
330
1F
100
AcDbEntity
  8
0
  6
Continuous
 62
     7
100
AcDbLine
 10
18025.9107997817
 20
-6948.762509414102
 30
0.0
 11
17961.3158470559
 21
-6948.762509414102
 31
0.0
  0
LINE
  5
E0DD
330
1F
100
AcDbEntity
  8
0
  6
Continuous
 62
     7
100
AcDbLine
 10
18029.886520071
 20
-6947.256243738903
 30
0.0
 11
17957.3401267666
 21
-6947.256243738903
 31
0.0
  0
LINE
  5
E0DE
330
1F
100
AcDbEntity
  8
0
  6
Continuous
 62
     7
100
AcDbLine
 10
17823.7030480371
 20
-6948.923943772303
 30
0.0
 11
17952.1571808125
 21
-6957.920201036403
 31
0.0
  0
LINE
  5
E0DF
330
1F
100
AcDbEntity
  8
0
  6
Continuous
 62
     7
100
AcDbLine
 10
17829.5088855069
 20
-6938.303610546602
 30
0.0
 11
17957.3401267666
 21
-6947.256243738903
 31
0.0
  0
LINE
  5
E0E0
330
1F
100
AcDbEntity
  8
0
  6
Continuous
 62
     7
100
AcDbLine
 10
17969.3390437081
 20
-6955.860834194801
 30
0.0
 11
17961.3158470559
 21
-6948.762509414102
 31
0.0
  0
LINE
  5
E0E1
330
1F
100
AcDbEntity
  8
0
  6
Continuous
 62
     2
100
AcDbLine
 10
17820.10418470241
 20
-6927.823886395103
 30
0.0
 11
17810.3457403112
 21
-6937.582330786203
 31
0.0
  0
LINE
  5
E0E2
330
1F
100
AcDbEntity
  8
0
  6
Continuous
 62
     7
100
AcDbLine
 10
17957.1223760133
 20
-6969.138345313902
 30
0.0
 11
17957.2718869349
 21
-6969.991916551802
 31
0.0
  0
LINE
  5
E0E3
330
1F
100
AcDbEntity
  8
0
  6
Continuous
 62
     7
100
AcDbLine
 10
17957.2718869349
 20
-6969.991916551802
 30
0.0
 11
17957.4143123671
 21
-6970.702516213504
 31
0.0
  0
LINE
  5
E0E4
330
1F
100
AcDbEntity
  8
0
  6
Continuous
 62
     7
100
AcDbLine
 10
17957.4143123671
 20
-6970.702516213504
 30
0.0
 11
17957.5632914843
 21
-6971.324271505404
 31
0.0
  0
LINE
  5
E0E5
330
1F
100
AcDbEntity
  8
0
  6
Continuous
 62
     7
100
AcDbLine
 10
17956.7888360225
 20
-6962.472205070501
 30
0.0
 11
17959.3737328466
 21
-6992.017710967103
 31
0.0
  0
LINE
  5
E0E6
330
1F
100
AcDbEntity
  8
0
  6
Continuous
 62
     2
100
AcDbLine
 10
17849.3775534074
 20
-6939.695108383803
 30
0.0
 11
17839.07233345581
 21
-6950.000328335504
 31
0.0
  0
LINE
  5
E0E7
330
1F
100
AcDbEntity
  8
0
  6
Continuous
 62
     7
100
AcDbLine
 10
17956.3914963099
 20
-6963.864239804303
 30
0.0
 11
17956.59560941991
 21
-6965.483500033203
 31
0.0
  0
LINE
  5
E0E8
330
1F
100
AcDbEntity
  8
0
  6
Continuous
 62
     7
100
AcDbLine
 10
17956.59560941991
 20
-6965.483500033203
 30
0.0
 11
17956.7852067531
 21
-6966.895878033902
 31
0.0
  0
LINE
  5
E0E9
330
1F
100
AcDbEntity
  8
0
  6
Continuous
 62
     7
100
AcDbLine
 10
17956.7852067531
 20
-6966.895878033902
 30
0.0
 11
17956.9605892782
 21
-6968.110826414903
 31
0.0
  0
LINE
  5
E0EA
330
1F
100
AcDbEntity
  8
0
  6
Continuous
 62
     7
100
AcDbLine
 10
17956.9605892782
 20
-6968.110826414903
 30
0.0
 11
17957.1223760133
 21
-6969.138345313902
 31
0.0
  0
LINE
  5
E0EB
330
1F
100
AcDbEntity
  8
0
  6
Continuous
 62
     7
100
AcDbLine
 10
17956.1733235047
 20
-6962.034297472103
 30
0.0
 11
17956.3914963099
 21
-6963.864239804303
 31
0.0
  0
LINE
  5
E0EC
330
1F
100
AcDbEntity
  8
0
  6
Continuous
 62
     7
100
AcDbLine
 10
17955.97372876621
 20
-6960.273157786902
 30
0.0
 11
17956.1733235047
 21
-6962.034297472103
 31
0.0
  0
LINE
  5
E0ED
330
1F
100
AcDbEntity
  8
0
  6
Continuous
 62
     7
100
AcDbLine
 10
17971.36332341881
 20
-6994.756243738902
 30
0.0
 11
17971.36332341881
 21
-6960.354568519602
 31
0.0
  0
LINE
  5
E0EE
330
1F
100
AcDbEntity
  8
0
  6
Continuous
 62
     7
100
AcDbLine
 10
17973.6133234188
 20
-6965.756243738903
 30
0.0
 11
17973.6133234188
 21
-6970.756243738903
 31
0.0
  0
LINE
  5
E0EF
330
1F
100
AcDbEntity
  8
0
  6
Continuous
 62
     2
100
AcDbLine
 10
17887.8291919546
 20
-6942.388060530404
 30
0.0
 11
17877.523972003
 21
-6952.693280482103
 31
0.0
  0
LINE
  5
E0F0
330
1F
100
AcDbEntity
  8
0
  6
Continuous
 62
     7
100
AcDbLine
 10
18013.6133234188
 20
-6965.756243738903
 30
0.0
 11
18013.6133234188
 21
-6970.756243738903
 31
0.0
  0
LINE
  5
E0F1
330
1F
100
AcDbEntity
  8
0
  6
Continuous
 62
     2
100
AcDbLine
 10
17926.2808305018
 20
-6945.081012677004
 30
0.0
 11
17915.9756105502
 21
-6955.386232628701
 31
0.0
  0
LINE
  5
E0F2
330
1F
100
AcDbEntity
  8
0
  6
Continuous
 62
     7
100
AcDbLine
 10
18015.8633234188
 20
-6994.756243738902
 30
0.0
 11
18015.8633234188
 21
-6960.354568519602
 31
0.0
  0
LINE
  5
E0F3
330
1F
100
AcDbEntity
  8
0
  6
Continuous
 62
     7
100
AcDbLine
 10
18215.61332341886
 20
-6814.756243738802
 30
0.0
 11
18211.44187219815
 21
-6814.756243738802
 31
0.0
  0
LINE
  5
E0F4
330
1F
100
AcDbEntity
  8
0
  6
Continuous
 62
     7
100
AcDbLine
 10
17797.80472532576
 20
-6814.756243738802
 30
0.0
 11
17771.61332341886
 21
-6814.756243738802
 31
0.0
  0
LINE
  5
E0F5
330
1F
100
AcDbEntity
  8
0
  6
Continuous
 62
     7
100
AcDbLine
 10
18189.42192151186
 20
-6814.756243738802
 30
0.0
 11
18210.71519457906
 21
-6814.756243738802
 31
0.0
  0
LINE
  5
E0F6
330
1F
100
AcDbEntity
  8
0
  6
Continuous
 62
     7
100
AcDbLine
 10
18206.54237728975
 20
-6812.756243738802
 30
0.0
 11
18193.31636372015
 21
-6812.756243738802
 31
0.0
  0
LINE
  5
E0F7
330
1F
100
AcDbEntity
  8
0
  6
Continuous
 62
     7
100
AcDbLine
 10
17793.91028311755
 20
-6812.756243738802
 30
0.0
 11
17780.68426954795
 21
-6812.756243738802
 31
0.0
  0
LINE
  5
E0F8
330
1F
100
AcDbEntity
  8
0
  6
Continuous
 62
     7
100
AcDbLine
 10
18030.4378108151
 20
-6962.472205070501
 30
0.0
 11
18027.852913991
 21
-6992.017710967103
 31
0.0
  0
LINE
  5
E0F9
330
1F
100
AcDbEntity
  8
0
  6
Continuous
 62
     7
100
AcDbLine
 10
18031.167902284
 20
-6961.035737199003
 30
0.0
 11
18031.2523629118
 21
-6960.273939523602
 31
0.0
  0
LINE
  5
E0FA
330
1F
100
AcDbEntity
  8
0
  6
Continuous
 62
     7
100
AcDbLine
 10
18030.7670379673
 20
-6964.415145010004
 30
0.0
 11
18030.9620117908
 21
-6962.811898337402
 31
0.0
  0
LINE
  5
E0FB
330
1F
100
AcDbEntity
  8
0
  6
Continuous
 62
     7
100
AcDbLine
 10
18030.9620117908
 20
-6962.811898337402
 30
0.0
 11
18031.167902284
 21
-6961.035737199003
 31
0.0
  0
LINE
  5
E0FC
330
1F
100
AcDbEntity
  8
0
  6
Continuous
 62
     7
100
AcDbLine
 10
18030.09819148351
 20
-6969.174956382904
 30
0.0
 11
18030.2499683564
 21
-6968.217323761902
 31
0.0
  0
LINE
  5
E0FD
330
1F
100
AcDbEntity
  8
0
  6
Continuous
 62
     7
100
AcDbLine
 10
18030.2499683564
 20
-6968.217323761902
 30
0.0
 11
18030.4112880901
 21
-6967.111435948402
 31
0.0
  0
LINE
  5
E0FE
330
1F
100
AcDbEntity
  8
0
  6
Continuous
 62
     7
100
AcDbLine
 10
18030.4112880901
 20
-6967.111435948402
 30
0.0
 11
18030.5834440003
 21
-6965.846811439402
 31
0.0
  0
LINE
  5
E0FF
330
1F
100
AcDbEntity
  8
0
  6
Continuous
 62
     7
100
AcDbLine
 10
18030.5834440003
 20
-6965.846811439402
 30
0.0
 11
18030.7670379673
 21
-6964.415145010004
 31
0.0
  0
LINE
  5
E100
330
1F
100
AcDbEntity
  8
0
  6
Continuous
 62
     7
100
AcDbLine
 10
18029.9550874184
 20
-6969.990155150502
 30
0.0
 11
18030.09819148351
 21
-6969.174956382904
 31
0.0
  0
LINE
  5
E101
330
1F
100
AcDbEntity
  8
0
  6
Continuous
 62
     2
100
AcDbLine
 10
17962.6041395451
 20
-6949.902294327504
 30
0.0
 11
17954.0371451006
 21
-6958.469288772004
 31
0.0
  0
LINE
  5
E102
330
1F
100
AcDbEntity
  8
0
  6
Continuous
 62
     7
100
AcDbLine
 10
18178.51966084885
 20
-6805.147294666102
 30
0.0
 11
17808.70698598885
 21
-6805.147294666102
 31
0.0
  0
LINE
  5
E103
330
1F
100
AcDbEntity
  8
0
  6
Continuous
 62
     7
100
AcDbLine
 10
18212.61332341886
 20
-6799.756243738802
 30
0.0
 11
17774.61332341886
 21
-6799.756243738802
 31
0.0
  0
LINE
  5
E104
330
1F
100
AcDbEntity
  8
0
  6
Continuous
 62
     7
100
AcDbLine
 10
18029.6635768301
 20
-6971.321740013303
 30
0.0
 11
18029.6675622742
 21
-6971.308719075503
 31
0.0
  0
LINE
  5
E105
330
1F
100
AcDbEntity
  8
0
  6
Continuous
 62
     7
100
AcDbLine
 10
18029.6675622742
 20
-6971.308719075503
 30
0.0
 11
18029.8161459943
 21
-6970.684932462802
 31
0.0
  0
LINE
  5
E106
330
1F
100
AcDbEntity
  8
0
  6
Continuous
 62
     7
100
AcDbLine
 10
18029.8161459943
 20
-6970.684932462802
 30
0.0
 11
18029.9550874184
 21
-6969.990155150502
 31
0.0
  0
LINE
  5
E107
330
1F
100
AcDbEntity
  8
0
  6
Continuous
 62
     2
100
AcDbLine
 10
17971.36332341881
 20
-6982.287701147604
 30
0.0
 11
17960.0558322095
 21
-6993.595192356903
 31
0.0
  0
LINE
  5
E108
330
1F
100
AcDbEntity
  8
0
  6
Continuous
 62
     7
100
AcDbLine
 10
18017.8876031295
 20
-6955.860834194801
 30
0.0
 11
18025.9107997817
 21
-6948.762509414102
 31
0.0
  0
LINE
  5
E109
330
1F
100
AcDbEntity
  8
0
  6
Continuous
 62
     2
100
AcDbLine
 10
18183.98676335715
 20
-6799.849466461002
 30
0.0
 11
18178.50042986075
 21
-6805.335799957403
 31
0.0
  0
LINE
  5
E10A
330
1F
100
AcDbEntity
  8
0
  6
Continuous
 62
     2
100
AcDbLine
 10
18048.8687907196
 20
-6945.926824540602
 30
0.0
 11
18037.0114184389
 21
-6957.784196821304
 31
0.0
  0
LINE
  5
E10B
330
1F
100
AcDbEntity
  8
0
  6
Continuous
 62
     2
100
AcDbLine
 10
18030.257025588
 20
-6964.538589672203
 30
0.0
 11
18015.8633234188
 21
-6978.932291841404
 31
0.0
  0
LINE
  5
E10C
330
1F
100
AcDbEntity
  8
0
  6
Continuous
 62
     2
100
AcDbLine
 10
18218.61332341885
 20
-6806.367497093103
 30
0.0
 11
18210.47647770516
 21
-6814.504342806802
 31
0.0
  0
LINE
  5
E10D
330
1F
100
AcDbEntity
  8
0
  6
Continuous
 62
     2
100
AcDbLine
 10
18186.13933094816
 20
-6838.841489563802
 30
0.0
 11
18173.82605744515
 21
-6851.154763066702
 31
0.0
  0
LINE
  5
E10E
330
1F
100
AcDbEntity
  8
0
  6
Continuous
 62
     2
100
AcDbLine
 10
18093.1119408121
 20
-6942.828265141904
 30
0.0
 11
18081.2545685313
 21
-6954.685637422603
 31
0.0
  0
LINE
  5
E10F
330
1F
100
AcDbEntity
  8
0
  6
Continuous
 62
     2
100
AcDbLine
 10
18181.4649585326
 20
-6895.619838115202
 30
0.0
 11
18169.1516850296
 21
-6907.933111618103
 31
0.0
  0
LINE
  5
E110
330
1F
100
AcDbEntity
  8
0
  6
Continuous
 62
     2
100
AcDbLine
 10
18137.3550909045
 20
-6939.729705743302
 30
0.0
 11
18125.4977186238
 21
-6951.587078024004
 31
0.0
  0
LINE
  5
E111
330
1F
100
AcDbEntity
  8
0
  6
Continuous
 62
     7
100
AcDbLine
 10
18178.51966084885
 20
-6805.147294666102
 30
0.0
 11
18166.9674888211
 21
-6929.342960172402
 31
0.0
  0
LINE
  5
E112
330
1F
100
AcDbEntity
  8
0
  6
Continuous
 62
     7
100
AcDbLine
 10
18188.34218169455
 20
-6817.248786178203
 30
0.0
 11
18177.3981900361
 21
-6935.482968210902
 31
0.0
  0
LINE
  5
E113
330
1F
100
AcDbEntity
  8
0
  6
Continuous
 62
     7
100
AcDbLine
 10
18218.61332341885
 20
-6811.756243738803
 30
0.0
 11
18218.61332341885
 21
-6805.756243738803
 31
0.0
  0
ARC
  5
E114
330
1F
100
AcDbEntity
  8
0
  6
Continuous
 62
     7
100
AcDbCircle
 10
17824.7510028784
 20
-6933.960595529002
 30
0.0
 40
15.0
100
AcDbArc
 50
185.82506484861
 51
265.9938438849741
  0
ARC
  5
E115
330
1F
100
AcDbEntity
  8
0
  6
Continuous
 62
     7
100
AcDbCircle
 10
17830.2075220677
 20
-6928.328045051102
 30
0.0
 40
10.0
100
AcDbArc
 50
185.82506484861
 51
265.9938438849741
  0
ARC
  5
E116
330
1F
100
AcDbEntity
  8
0
  6
Continuous
 62
     7
100
AcDbCircle
 10
17965.3633234188
 20
-6960.354568519602
 30
0.0
 40
6.0
100
AcDbArc
 50
0.0
 51
48.50000000002036
  0
ARC
  5
E117
330
1F
100
AcDbEntity
  8
0
  6
Continuous
 62
     7
100
AcDbCircle
 10
17978.6133234188
 20
-6965.756243738903
 30
0.0
 40
5.0
100
AcDbArc
 50
90.0
 51
180.0
  0
ARC
  5
E118
330
1F
100
AcDbEntity
  8
0
  6
Continuous
 62
     7
100
AcDbCircle
 10
17978.6133234188
 20
-6970.756243738903
 30
0.0
 40
5.0
100
AcDbArc
 50
180.0
 51
270.0
  0
ARC
  5
E119
330
1F
100
AcDbEntity
  8
0
  6
Continuous
 62
     7
100
AcDbCircle
 10
17951.807862532
 20
-6962.907983784204
 30
0.0
 40
5.0
100
AcDbArc
 50
5.000000000025947
 51
85.99384388497407
  0
ARC
  5
E11A
330
1F
100
AcDbEntity
  8
0
  6
Continuous
 62
     7
100
AcDbCircle
 10
17962.36231694081
 20
-6991.756243738902
 30
0.0
 40
3.0
100
AcDbArc
 50
185.000000000026
 51
270.0
  0
ARC
  5
E11B
330
1F
100
AcDbEntity
  8
0
  6
Continuous
 62
     7
100
AcDbCircle
 10
17957.3401267666
 20
-6953.256243738903
 30
0.0
 40
6.0
100
AcDbArc
 50
48.50000000002036
 51
90.0
  0
ARC
  5
E11C
330
1F
100
AcDbEntity
  8
0
  6
Continuous
 62
     7
100
AcDbCircle
 10
17802.73796755815
 20
-6805.756243738803
 30
0.0
 40
6.0
100
AcDbArc
 50
5.825064848610011
 51
90.0
  0
ARC
  5
E11D
330
1F
100
AcDbEntity
  8
0
  6
Continuous
 62
     7
100
AcDbCircle
 10
17774.61332341886
 20
-6805.756243738803
 30
0.0
 40
6.0
100
AcDbArc
 50
90.0
 51
180.0
  0
ARC
  5
E11E
330
1F
100
AcDbEntity
  8
0
  6
Continuous
 62
     7
100
AcDbCircle
 10
17780.68426954795
 20
-6817.756243738802
 30
0.0
 40
5.0
100
AcDbArc
 50
90.0
 51
134.4183218654702
  0
ARC
  5
E11F
330
1F
100
AcDbEntity
  8
0
  6
Continuous
 62
     7
100
AcDbCircle
 10
17793.91028311755
 20
-6817.756243738802
 30
0.0
 40
5.0
100
AcDbArc
 50
5.825064848610011
 51
90.0
  0
ARC
  5
E120
330
1F
100
AcDbEntity
  8
0
  6
Continuous
 62
     7
100
AcDbCircle
 10
17771.61332341886
 20
-6811.756243738803
 30
0.0
 40
3.0
100
AcDbArc
 50
180.0
 51
270.0
  0
ARC
  5
E121
330
1F
100
AcDbEntity
  8
0
  6
Continuous
 62
     7
100
AcDbCircle
 10
17775.78477463956
 20
-6812.756243738802
 30
0.0
 40
2.0
100
AcDbArc
 50
270.0
 51
314.4183218654702
  0
ARC
  5
E122
330
1F
100
AcDbEntity
  8
0
  6
Continuous
 62
     7
100
AcDbCircle
 10
18162.4756439592
 20
-6933.960595529002
 30
0.0
 40
15.0
100
AcDbArc
 50
274.0061561150259
 51
354.17493515139
  0
ARC
  5
E123
330
1F
100
AcDbEntity
  8
0
  6
Continuous
 62
     7
100
AcDbCircle
 10
18157.0191247698
 20
-6928.328045051102
 30
0.0
 40
10.0
100
AcDbArc
 50
274.0061561150259
 51
354.17493515139
  0
ARC
  5
E124
330
1F
100
AcDbEntity
  8
0
  6
Continuous
 62
     7
100
AcDbCircle
 10
18021.8633234188
 20
-6960.354568519602
 30
0.0
 40
6.0
100
AcDbArc
 50
131.4999999999796
 51
180.0
  0
ARC
  5
E125
330
1F
100
AcDbEntity
  8
0
  6
Continuous
 62
     7
100
AcDbCircle
 10
18029.886520071
 20
-6953.256243738903
 30
0.0
 40
6.0
100
AcDbArc
 50
90.0
 51
131.4999999999796
  0
ARC
  5
E126
330
1F
100
AcDbEntity
  8
0
  6
Continuous
 62
     7
100
AcDbCircle
 10
18008.61332341881
 20
-6970.756243738903
 30
0.0
 40
5.0
100
AcDbArc
 50
270.0
 51
0.0
  0
ARC
  5
E127
330
1F
100
AcDbEntity
  8
0
  6
Continuous
 62
     7
100
AcDbCircle
 10
18008.61332341881
 20
-6965.756243738903
 30
0.0
 40
5.0
100
AcDbArc
 50
0.0
 51
90.0
  0
ARC
  5
E128
330
1F
100
AcDbEntity
  8
0
  6
Continuous
 62
     7
100
AcDbCircle
 10
18035.41878430561
 20
-6962.907983784204
 30
0.0
 40
5.0
100
AcDbArc
 50
94.00615611502592
 51
174.999999999974
  0
ARC
  5
E129
330
1F
100
AcDbEntity
  8
0
  6
Continuous
 62
     7
100
AcDbCircle
 10
18024.8643298967
 20
-6991.756243738902
 30
0.0
 40
3.0
100
AcDbArc
 50
270.0
 51
354.999999999974
  0
ARC
  5
E12A
330
1F
100
AcDbEntity
  8
0
  6
Continuous
 62
     7
100
AcDbCircle
 10
18184.48867927955
 20
-6805.756243738803
 30
0.0
 40
6.0
100
AcDbArc
 50
90.0
 51
174.17493515139
  0
ARC
  5
E12B
330
1F
100
AcDbEntity
  8
0
  6
Continuous
 62
     7
100
AcDbCircle
 10
18212.61332341886
 20
-6805.756243738803
 30
0.0
 40
6.0
100
AcDbArc
 50
0.0
 51
90.0
  0
ARC
  5
E12C
330
1F
100
AcDbEntity
  8
0
  6
Continuous
 62
     7
100
AcDbCircle
 10
18206.54237728975
 20
-6817.756243738802
 30
0.0
 40
5.0
100
AcDbArc
 50
45.5816781345298
 51
90.0
  0
ARC
  5
E12D
330
1F
100
AcDbEntity
  8
0
  6
Continuous
 62
     7
100
AcDbCircle
 10
18193.31636372015
 20
-6817.756243738802
 30
0.0
 40
5.0
100
AcDbArc
 50
90.0
 51
174.17493515139
  0
ARC
  5
E12E
330
1F
100
AcDbEntity
  8
0
  6
Continuous
 62
     7
100
AcDbCircle
 10
18215.61332341886
 20
-6811.756243738803
 30
0.0
 40
3.0
100
AcDbArc
 50
270.0
 51
0.0
  0
ARC
  5
E12F
330
1F
100
AcDbEntity
  8
0
  6
Continuous
 62
     7
100
AcDbCircle
 10
18211.44187219815
 20
-6812.756243738802
 30
0.0
 40
2.0
100
AcDbArc
 50
225.5816781345298
 51
270.0
  0
SPLINE
  5
E130
330
1F
100
AcDbEntity
  8
0
  6
Continuous
 62
     7
100
AcDbSpline
210
0.0
220
0.0
230
1.0
 70
     8
 71
     3
 72
    11
 73
     7
 74
     5
 42
0.0000000001
 43
0.0000000001
 44
0.0000000001
 12
0.3828557881213368
 22
0.9238081215826099
 32
0.0
 13
0.1185427229071702
 23
0.9929489527894945
 33
0.0
 40
0.0
 40
0.0
 40
0.0
 40
0.0
 40
0.7549962448431619
 40
2.812321654373061
 40
5.898996926448043
 40
8.272963975287545
 40
8.272963975287545
 40
8.272963975287545
 40
8.272963975287545
 10
18029.7493141045
 20
-6970.713539230402
 30
0.0
 10
18029.84566566529
 20
-6970.481048676153
 30
0.0
 10
18029.98920314388
 20
-6969.543730291942
 30
0.0
 10
18030.35875132205
 20
-6967.621471962989
 30
0.0
 10
18030.67194564663
 20
-6965.129504734811
 30
0.0
 10
18030.89337459028
 20
-6963.323936212771
 30
0.0
 10
18030.9871800963
 20
-6962.538193514403
 30
0.0
 11
18029.7493141045
 21
-6970.713539230402
 31
0.0
 11
18029.9250864579
 21
-6969.979288994102
 31
0.0
 11
18030.2769986246
 21
-6967.952284882703
 31
0.0
 11
18030.699700922
 21
-6964.894689912305
 31
0.0
 11
18030.9871800963
 21
-6962.538193514403
 31
0.0
  0
SPLINE
  5
E131
330
1F
100
AcDbEntity
  8
0
  6
Continuous
 62
     7
100
AcDbSpline
210
0.0
220
0.0
230
1.0
 70
     8
 71
     3
 72
     8
 73
     4
 74
     2
 42
0.0000000001
 43
0.0000000001
 44
0.0000000001
 12
0.118542722931377
 22
0.9929489527866046
 32
0.0
 13
0.1139958296957462
 23
0.9934812282131849
 33
0.0
 40
0.0
 40
0.0
 40
0.0
 40
0.0
 40
1.504746203236507
 40
1.504746203236507
 40
1.504746203236507
 40
1.504746203236507
 10
18030.9871800963
 20
-6962.538193514403
 30
0.0
 10
18031.04663900039
 20
-6962.040148125499
 30
0.0
 10
18031.10511690273
 20
-6961.541983936716
 30
0.0
 10
18031.1622951667
 20
-6961.043671568003
 30
0.0
 11
18030.9871800963
 21
-6962.538193514403
 31
0.0
 11
18031.1622951667
 21
-6961.043671568003
 31
0.0
  0
SPLINE
  5
E132
330
1F
100
AcDbEntity
  8
0
  6
Continuous
 62
     7
100
AcDbSpline
210
0.0
220
0.0
230
1.0
 70
     8
 71
     3
 72
     8
 73
     4
 74
     2
 42
0.0000000001
 43
0.0000000001
 44
0.0000000001
 12
0.1139958296538419
 22
0.9934812282179931
 32
0.0
 13
0.1114916748962639
 23
0.9937653678956747
 33
0.0
 40
0.0
 40
0.0
 40
0.0
 40
0.0
 40
0.763270396999618
 40
0.763270396999618
 40
0.763270396999618
 40
0.763270396999618
 10
18031.1622951667
 20
-6961.043671568003
 30
0.0
 10
18031.19129838075
 20
-6960.790906630845
 30
0.0
 10
18031.21996738918
 20
-6960.538103162562
 30
0.0
 10
18031.2483334875
 20
-6960.285265933602
 30
0.0
 11
18031.1622951667
 21
-6961.043671568003
 31
0.0
 11
18031.2483334875
 21
-6960.285265933602
 31
0.0
  0
SPLINE
  5
E133
330
1F
100
AcDbEntity
  8
0
  6
Continuous
 62
     7
100
AcDbSpline
210
0.0
220
0.0
230
1.0
 70
     8
 71
     3
 72
    11
 73
     7
 74
     5
 42
0.0000000001
 43
0.0000000001
 44
0.0000000001
 12
-0.3831561445280818
 22
0.9236835870093045
 32
0.0
 13
-0.1185995623842198
 23
0.9929421653864194
 33
0.0
 40
0.0
 40
0.0
 40
0.0
 40
0.0
 40
0.7645868067716545
 40
2.80396493977635
 40
5.842012603536799
 40
8.272115172668572
 40
8.272115172668572
 40
8.272115172668572
 40
8.272115172668572
 10
17957.4769710869
 20
-6970.712892628703
 30
0.0
 10
17957.37931904255
 20
-6970.47748053395
 30
0.0
 10
17957.2375089311
 20
-6969.542574489256
 30
0.0
 10
17956.8709247071
 20
-6967.639049611037
 30
0.0
 10
17956.55758230619
 20
-6965.150637907247
 30
0.0
 10
17956.33546887642
 20
-6963.34266082497
 30
0.0
 10
17956.239399176
 20
-6962.538343722603
 30
0.0
 11
17957.4769710869
 21
-6970.712892628703
 31
0.0
 11
17957.2994430153
 21
-6969.969201315802
 31
0.0
 11
17956.9508028448
 21
-6967.959844901203
 31
0.0
 11
17956.5340948684
 21
-6964.950511408602
 31
0.0
 11
17956.239399176
 21
-6962.538343722603
 31
0.0
  0
SPLINE
  5
E134
330
1F
100
AcDbEntity
  8
0
  6
Continuous
 62
     7
100
AcDbSpline
210
0.0
220
0.0
230
1.0
 70
     8
 71
     3
 72
     8
 73
     4
 74
     2
 42
0.0000000001
 43
0.0000000001
 44
0.0000000001
 12
-0.1185995623804472
 22
0.9929421653868701
 32
0.0
 13
-0.1142479619560722
 23
0.9934522651787977
 33
0.0
 40
0.0
 40
0.0
 40
0.0
 40
0.0
 40
1.417216572708844
 40
1.417216572708844
 40
1.417216572708844
 40
1.417216572708844
 10
17956.239399176
 20
-6962.538343722603
 30
0.0
 10
17956.18337208756
 20
-6962.069272358426
 30
0.0
 10
17956.12823703157
 20
-6961.600093011738
 30
0.0
 10
17956.0742656632
 20
-6961.130780673602
 30
0.0
 11
17956.239399176
 21
-6962.538343722603
 31
0.0
 11
17956.0742656632
 21
-6961.130780673602
 31
0.0
  0
SPLINE
  5
E135
330
1F
100
AcDbEntity
  8
0
  6
Continuous
 62
     7
100
AcDbSpline
210
0.0
220
0.0
230
1.0
 70
     8
 71
     3
 72
     8
 73
     4
 74
     2
 42
0.0000000001
 43
0.0000000001
 44
0.0000000001
 12
-0.1142479618734191
 22
0.9934522651883028
 32
0.0
 13
-0.1114477494827388
 23
0.9937702949551432
 33
0.0
 40
0.0
 40
0.0
 40
0.0
 40
0.0
 40
0.8503977117196823
 40
0.8503977117196823
 40
0.8503977117196823
 40
0.8503977117196823
 10
17956.0742656632
 20
-6961.130780673602
 30
0.0
 10
17956.04188026142
 20
-6960.849170829262
 30
0.0
 10
17956.00991363165
 20
-6960.567512574137
 30
0.0
 10
17955.9783219946
 20
-6960.285812579202
 30
0.0
 11
17956.0742656632
 21
-6961.130780673602
 31
0.0
 11
17955.9783219946
 21
-6960.285812579202
 31
0.0
  0
LINE
  5
E136
330
1F
100
AcDbEntity
  8
中心线
100
AcDbLine
 10
17993.61332341875
 20
-7060.664468616526
 30
0.0
 11
17993.6133234188
 21
-6721.186422329539
 31
0.0
  0
MTEXT
  5
E137
330
1F
100
AcDbEntity
  8
虚线
100
AcDbMText
 10
17985.06029542904
 20
-6815.694621742789
 30
0.0
 40
4.0
 41
20.1697188414546
 46
0.0
 71
     1
 72
     5
  1
{\fMicrosoft YaHei|b0|i0|c134|p34;AXENT}
 73
     1
 44
1.0
  0
CIRCLE
  5
E138
330
1F
100
AcDbEntity
  8
0
100
AcDbCircle
 10
17993.61332341885
 20
-6799.756243738802
 30
0.0
 40
27.77603065559482
  0
LEADER
  5
E139
330
1F
100
AcDbEntity
  8
尺寸标注层
100
AcDbLeader
  3
宋体
 76
     3
 10
17983.05244255406
 20
-6810.541878155169
 30
0.0
 10
17871.97037928026
 20
-6756.309290679148
 30
0.0
 10
17842.04190681164
 20
-6756.309290679148
 30
0.0
1001
ACAD
1000
DSTYLE
1002
{
1070
   147
1040
20.0
1070
    77
1070
     0
1002
}
  0
MTEXT
  5
E13A
330
1F
100
AcDbEntity
  8
虚线
100
AcDbMText
 10
17852.19858083958
 20
-6728.693553533178
 30
0.0
 40
20.0
 41
86.8675272577675
 46
0.0
 71
     1
 72
     5
  1
{\C0;Ⅰ}
 73
     1
 44
1.0
  0
MTEXT
  5
E13B
330
1F
100
AcDbEntity
  8
细实线
100
AcDbMText
 10
16062.67961424281
 20
-7777.405967990898
 30
0.0
 40
24.0
 41
685.0640606085886
 46
0.0
 71
     1
 72
     5
  1
增加洗净面施易洁釉要求
 73
     1
 44
1.0
  0
MTEXT
  5
E13C
330
1F
100
AcDbEntity
  8
细实线
100
AcDbMText
 10
16709.30816481464
 20
-7779.836879408687
 30
0.0
 40
24.0
 41
139.4232258186646
 46
0.0
 71
     1
 72
     5
  1
18.12.17
 73
     1
 44
1.0
  0
MTEXT
  5
E13D
330
1F
100
AcDbEntity
  8
细实线
100
AcDbMText
 10
16881.47489700187
 20
-7777.210485706752
 30
0.0
 40
24.0
 41
98.37968377535872
 46
0.0
 71
     1
 72
     5
  1
吴 凡
 73
     1
 44
1.0
  0
MTEXT
  5
E13E
330
1F
100
AcDbEntity
  8
细实线
100
AcDbMText
 10
16867.92685134137
 20
-7831.942553871289
 30
0.0
 40
24.0
 41
111.9277294358624
 46
0.0
 71
     1
 72
     5
  1
张大龙
 73
     1
 44
1.0
  0
MTEXT
  5
E13F
330
1F
100
AcDbEntity
  8
细实线
100
AcDbMText
 10
16709.30816481464
 20
-7834.836879408688
 30
0.0
 40
24.0
 41
139.4232258186646
 46
0.0
 71
     1
 72
     5
  1
13.3.6
 73
     1
 44
1.0
  0
MTEXT
  5
E140
330
1F
100
AcDbEntity
  8
细实线
100
AcDbMText
 10
17894.85679864915
 20
-5994.823291523678
 30
0.0
 40
24.0
 41
98.37968377535872
 46
0.0
 71
     1
 72
     5
  1
2.0
 73
     1
 44
1.0
  0
MTEXT
  5
E141
330
1F
100
AcDbEntity
  8
细实线
100
AcDbMText
 10
18147.19749730788
 20
-5991.301718298132
 30
0.0
 40
24.0
 41
118.5024625621015
 46
0.0
 71
     1
 72
     5
  1
张大龙
 73
     1
 44
1.0
  0
MTEXT
  5
E142
330
1F
100
AcDbEntity
  8
细实线
100
AcDbMText
 10
17980.17171352487
 20
-5997.903518584219
 30
0.0
 40
20.0
 41
98.37968377535872
 46
0.0
 71
     1
 72
     5
  1
2013.3.6
 73
     1
 44
1.0
  0
MTEXT
  5
E143
330
1F
100
AcDbEntity
  8
细实线
100
AcDbMText
 10
17893.8873817813
 20
-6054.687391053024
 30
0.0
 40
24.0
 41
98.37968377535872
 46
0.0
 71
     1
 72
     5
  1
2.1
 73
     1
 44
1.0
  0
MTEXT
  5
E144
330
1F
100
AcDbEntity
  8
细实线
100
AcDbMText
 10
18153.27368784624
 20
-6053.928152784237
 30
0.0
 40
24.0
 41
118.5024625621015
 46
0.0
 71
     1
 72
     5
  1
吴 凡
 73
     1
 44
1.0
  0
MTEXT
  5
E145
330
1F
100
AcDbEntity
  8
细实线
100
AcDbMText
 10
17979.19503486677
 20
-6054.639562217269
 30
0.0
 40
20.0
 41
98.37968377535872
 46
0.0
 71
     1
 72
     5
  1
2018.12.17
 73
     1
 44
1.0
  0
MTEXT
  5
E146
330
1F
100
AcDbEntity
  8
细实线
100
AcDbMText
 10
17893.76855832829
 20
-6109.423063450621
 30
0.0
 40
24.0
 41
98.37968377535872
 46
0.0
 71
     1
 72
     5
  1
2.2
 73
     1
 44
1.0
  0
MTEXT
  5
E147
330
1F
100
AcDbEntity
  8
细实线
100
AcDbMText
 10
18149.21794585445
 20
-6104.724703640703
 30
0.0
 40
24.0
 41
118.5024625621015
 46
0.0
 71
     1
 72
     5
  1
朱 娜 
 73
     1
 44
1.0
  0
MTEXT
  5
E148
330
1F
100
AcDbEntity
  8
细实线
100
AcDbMText
 10
17979.03668928092
 20
-6107.358484045651
 30
0.0
 40
20.0
 41
98.37968377535872
 46
0.0
 71
     1
 72
     5
  1
2021.5.31
 73
     1
 44
1.0
  0
MTEXT
  5
E149
330
1F
100
AcDbEntity
  8
细实线
100
AcDbMText
 10
16062.67961424281
 20
-7722.405967990898
 30
0.0
 40
24.0
 41
685.0640606085886
 46
0.0
 71
     1
 72
     5
  1
NL1917/NL2910   2D图共用 
 73
     1
 44
1.0
  0
MTEXT
  5
E14A
330
1F
100
AcDbEntity
  8
细实线
100
AcDbMText
 10
16709.30816481464
 20
-7724.836879408687
 30
0.0
 40
24.0
 41
139.4232258186646
 46
0.0
 71
     1
 72
     5
  1
21.05.31
 73
     1
 44
1.0
  0
MTEXT
  5
E14B
330
1F
100
AcDbEntity
  8
细实线
100
AcDbMText
 10
16881.47489700187
 20
-7722.210485706752
 30
0.0
 40
24.0
 41
98.37968377535872
 46
0.0
 71
     1
 72
     5
  1
朱 娜
 73
     1
 44
1.0
  0
MTEXT
  5
E14C
330
1F
100
AcDbEntity
  8
细实线
100
AcDbMText
 10
17938.67836718367
 20
-7763.408135167765
 30
0.0
 40
18.0
 41
368.9268341443348
 46
0.0
 71
     1
 72
     5
  1
381M0055XT99/381N0082XT99\P（NL1917/NL2910）
 73
     1
 44
1.0
  0
ENDSEC
  0
SECTION
  2
OBJECTS
  0
DICTIONARY
  5
C
330
0
100
AcDbDictionary
281
     1
  3
ACAD_COLOR
350
6B
  3
ACAD_GROUP
350
D
  3
ACAD_LAYOUT
350
1A
  3
ACAD_MATERIAL
350
6A
  3
ACAD_MLEADERSTYLE
350
D9BD
  3
ACAD_MLINESTYLE
350
17
  3
ACAD_PLOTSETTINGS
350
19
  3
ACAD_PLOTSTYLENAME
350
E
  3
ACAD_SCALELIST
350
D99B
  3
ACAD_TABLESTYLE
350
7E
  3
ACAD_VISUALSTYLE
350
F0
  3
ACDB_RECOMPOSE_DATA
350
EBDE
  3
ACDBHEADERROUNDTRIPXREC
350
EBDB
  3
AcDbVariableDictionary
350
5E
  3
ASE_INDEX_DICTIONARY
350
2606
  3
lxx_dict
350
123
  0
DICTIONARY
  5
6569
330
8
100
AcDbDictionary
280
     1
281
     1
  0
DICTIONARY
  5
1D0
330
2
100
AcDbDictionary
280
     1
281
     1
  3
ACAD_LAYERFILTERS
360
534
  3
ACAD_LAYERSTATES
360
26A6
  3
ACLYDICTIONARY
360
533
  0
DICTIONARY
  5
1E9
330
1F
100
AcDbDictionary
280
     1
281
     1
  3
ACAD_SORTENTS
360
1EA
  0
DICTIONARY
  5
E0A6
330
E0A5
100
AcDbDictionary
280
     1
281
     1
  3
ACAD_DIMASSOC
360
E0A7
  0
DICTIONARY
  5
E0A9
330
E0A8
100
AcDbDictionary
280
     1
281
     1
  3
ACAD_DIMASSOC
360
E0AA
  0
DICTIONARY
  5
E0AC
330
E0AB
100
AcDbDictionary
280
     1
281
     1
  3
ACAD_DIMASSOC
360
E0AD
  0
DICTIONARY
  5
E0AF
330
E0AE
100
AcDbDictionary
280
     1
281
     1
  3
ACAD_DIMASSOC
360
E0B0
  0
DICTIONARY
  5
E0B2
330
E0B1
100
AcDbDictionary
280
     1
281
     1
  3
ACAD_DIMASSOC
360
E0B3
  0
DICTIONARY
  5
E0B6
330
E0B5
100
AcDbDictionary
280
     1
281
     1
  3
ACAD_DIMASSOC
360
E0B7
  0
DICTIONARY
  5
E0B9
330
E0B8
100
AcDbDictionary
280
     1
281
     1
  3
ACAD_DIMASSOC
360
E0BA
  0
DICTIONARY
  5
E0BC
330
E0BB
100
AcDbDictionary
280
     1
281
     1
  3
ACAD_DIMASSOC
360
E0BD
  0
DICTIONARY
  5
E0BF
330
E0BE
100
AcDbDictionary
280
     1
281
     1
  3
ACAD_DIMASSOC
360
E0C0
  0
DICTIONARY
  5
6B
102
{ACAD_REACTORS
330
C
102
}
330
C
100
AcDbDictionary
281
     1
  0
DICTIONARY
  5
D
102
{ACAD_REACTORS
330
C
102
}
330
C
100
AcDbDictionary
281
     1
  0
DICTIONARY
  5
1A
102
{ACAD_REACTORS
330
C
102
}
330
C
100
AcDbDictionary
281
     1
  3
Model
350
22
  3
布局1
350
D3
  3
布局2
350
D7
  0
DICTIONARY
  5
6A
102
{ACAD_REACTORS
330
C
102
}
330
C
100
AcDbDictionary
281
     1
  3
ByBlock
350
EE
  3
ByLayer
350
ED
  3
Global
350
EF
  0
DICTIONARY
  5
D9BD
102
{ACAD_REACTORS
330
C
102
}
330
C
100
AcDbDictionary
281
     1
  3
Standard
350
D9BE
  0
DICTIONARY
  5
17
102
{ACAD_REACTORS
330
C
102
}
330
C
100
AcDbDictionary
281
     1
  3
Standard
350
18
  0
DICTIONARY
  5
19
102
{ACAD_REACTORS
330
C
102
}
330
C
100
AcDbDictionary
281
     1
  0
ACDBDICTIONARYWDFLT
  5
E
102
{ACAD_REACTORS
330
C
102
}
330
C
100
AcDbDictionary
281
     1
  3
Normal
350
F
100
AcDbDictionaryWithDefault
340
F
  0
DICTIONARY
  5
D99B
102
{ACAD_REACTORS
330
C
102
}
330
C
100
AcDbDictionary
281
     1
  3
A0
350
D99C
  3
A1
350
D99D
  3
A2
350
D99E
  3
A3
350
D99F
  3
A4
350
D9A0
  3
A5
350
D9A1
  3
A6
350
D9A2
  3
A7
350
D9A3
  3
A8
350
D9A4
  3
A9
350
D9A5
  3
B0
350
D9A6
  3
B1
350
D9A7
  3
B2
350
D9A8
  3
B3
350
D9A9
  3
B4
350
D9AA
  3
B5
350
D9AB
  3
B6
350
D9AC
  3
B7
350
D9AD
  3
B8
350
D9AE
  3
B9
350
D9AF
  3
C0
350
D9B0
  3
C1
350
D9B1
  3
C2
350
D9B2
  3
C3
350
D9B3
  3
C4
350
D9B4
  3
C5
350
D9B5
  3
C6
350
D9B6
  3
C7
350
D9B7
  3
C8
350
D9B8
  3
C9
350
D9B9
  3
D0
350
D9BA
  3
D1
350
D9BB
  3
D2
350
D9BC
  0
DICTIONARY
  5
7E
102
{ACAD_REACTORS
330
C
102
}
330
C
100
AcDbDictionary
281
     1
  3
Standard
350
7F
  0
DICTIONARY
  5
F0
102
{ACAD_REACTORS
330
C
102
}
330
C
100
AcDbDictionary
281
     1
  3
2dWireframe
350
F6
  3
3D Hidden
350
F8
  3
3dWireframe
350
F7
  3
Basic
350
F5
  3
Brighten
350
FC
  3
ColorChange
350
100
  3
Conceptual
350
F9
  3
Dim
350
FB
  3
Facepattern
350
FF
  3
Flat
350
F1
  3
FlatWithEdges
350
F2
  3
Gouraud
350
F3
  3
GouraudWithEdges
350
F4
  3
Linepattern
350
FE
  3
Realistic
350
FA
  3
Thicken
350
FD
  0
XRECORD
  5
EBDE
102
{ACAD_REACTORS
330
C
102
}
330
C
100
AcDbXrecord
280
     1
 90
        1
330
7F
  0
DICTIONARY
  5
EBDB
102
{ACAD_REACTORS
330
C
102
}
330
C
100
AcDbDictionary
281
     1
  0
DICTIONARY
  5
5E
102
{ACAD_REACTORS
330
C
102
}
330
C
100
AcDbDictionary
281
     1
  3
CMLEADERSTYLE
350
D9C4
  3
CTABLESTYLE
350
84
  3
DIMASSOC
350
5F
  3
HIDETEXT
350
63
  0
DICTIONARY
  5
2606
102
{ACAD_REACTORS
330
C
102
}
330
C
100
AcDbDictionary
281
     1
  3
ASEBlockHierarchyIndexRecord
350
2607
1001
DCO15
1040
1735386475.359
  0
DICTIONARY
  5
123
102
{ACAD_REACTORS
330
C
102
}
330
C
100
AcDbDictionary
281
     1
  3
lxx_dimth
350
124
  0
DICTIONARY
  5
534
102
{ACAD_REACTORS
330
1D0
102
}
330
1D0
100
AcDbDictionary
281
     1
  0
DICTIONARY
  5
26A6
102
{ACAD_REACTORS
330
1D0
102
}
330
1D0
100
AcDbDictionary
281
     1
  0
DICTIONARY
  5
533
102
{ACAD_REACTORS
330
1D0
102
}
330
1D0
100
AcDbDictionary
281
     1
1001
ACAD
1000
<All
  0
SORTENTSTABLE
  5
1EA
102
{ACAD_REACTORS
330
1E9
102
}
330
1E9
100
AcDbSortentsTable
330
1F
331
DFE8
  5
DFE8
331
DFE9
  5
DFE9
331
DFEA
  5
DFEA
331
E008
  5
E008
331
DFEB
  5
DFEB
331
E009
  5
E009
331
DFEC
  5
DFEC
331
E00A
  5
E00A
331
E028
  5
E028
331
DFED
  5
DFED
331
E00B
  5
E00B
331
E029
  5
E029
331
DFEE
  5
DFEE
331
E00C
  5
E00C
331
E02A
  5
E02A
331
E048
  5
E048
331
DFEF
  5
DFEF
331
E00D
  5
E00D
331
E02B
  5
E02B
331
E049
  5
E04A
331
DFF0
  5
DFF0
331
E00E
  5
E00E
331
E02C
  5
E02C
331
E04A
  5
E04B
331
E060
  5
E061
331
DFF1
  5
DFF1
331
E00F
  5
E00F
331
E02D
  5
E02D
331
E04B
  5
E04C
331
E061
  5
E062
331
DFF2
  5
DFF2
331
E010
  5
E010
331
E02E
  5
E02E
331
E04C
  5
E04D
331
E062
  5
E063
331
E080
  5
E081
331
DFF3
  5
DFF3
331
E011
  5
E011
331
E02F
  5
E02F
331
E04D
  5
E04E
331
E063
  5
E064
331
E081
  5
E082
331
DFF4
  5
DFF4
331
E012
  5
E012
331
E030
  5
E030
331
E04E
  5
E04F
331
E064
  5
E065
331
E082
  5
E083
331
E0A0
  5
E0A1
331
DFF5
  5
DFF5
331
E013
  5
E013
331
E031
  5
E031
331
E04F
  5
E050
331
E065
  5
E066
331
E083
  5
E084
331
E0A1
  5
E0A2
331
DFF6
  5
DFF6
331
E014
  5
E014
331
E032
  5
E032
331
E050
  5
E051
331
E066
  5
E067
331
E084
  5
E085
331
E0A2
  5
E0A3
331
DFF7
  5
DFF7
331
E015
  5
E015
331
E033
  5
E033
331
E051
  5
E052
331
E067
  5
E068
331
E085
  5
E086
331
E0A3
  5
E0A4
331
DFF8
  5
DFF8
331
E016
  5
E016
331
E034
  5
E034
331
E052
  5
E053
331
E068
  5
E069
331
E086
  5
E087
331
E0A4
  5
E0A5
331
E0D8
  5
E0D9
331
DFF9
  5
DFF9
331
E017
  5
E017
331
E035
  5
E035
331
E053
  5
E054
331
E069
  5
E06A
331
E087
  5
E088
331
E0A5
  5
E0A8
331
E0D9
  5
E0DA
331
DFFA
  5
DFFA
331
E018
  5
E018
331
E036
  5
E036
331
E054
  5
E055
331
E06A
  5
E06B
331
E088
  5
E089
331
E0DA
  5
E0DB
331
E0F8
  5
E0F9
331
DFFB
  5
DFFB
331
E019
  5
E019
331
E037
  5
E037
331
E055
  5
E056
331
E06B
  5
E06C
331
E089
  5
E08A
331
E0C5
  5
E0C6
331
E0DB
  5
E0DC
331
E0F9
  5
E0FA
331
DFFC
  5
DFFC
331
E01A
  5
E01A
331
E038
  5
E038
331
E056
  5
E057
331
E06C
  5
E06D
331
E08A
  5
E08B
331
E0A8
  5
E0AB
331
E0C6
  5
E0C7
331
E0DC
  5
E0DD
331
E0FA
  5
E0FB
331
E118
  5
E119
331
DFFD
  5
DFFD
331
E01B
  5
E01B
331
E039
  5
E039
331
E057
  5
E058
331
E06D
  5
E06E
331
E08B
  5
E08C
331
E0C7
  5
E0C8
331
E0DD
  5
E0DE
331
E0FB
  5
E0FC
331
E119
  5
E11A
331
DFFE
  5
DFFE
331
E01C
  5
E01C
331
E03A
  5
E03A
331
E058
  5
E059
331
E06E
  5
E06F
331
E08C
  5
E08D
331
E0C8
  5
E0C9
331
E0DE
  5
E0DF
331
E0FC
  5
E0FD
331
E11A
  5
E11B
331
E138
  5
E139
331
DFFF
  5
DFFF
331
E01D
  5
E01D
331
E03B
  5
E03B
331
E059
  5
E05A
331
E06F
  5
E070
331
E08D
  5
E08E
331
E0AB
  5
E0AE
331
E0C9
  5
E0CA
331
E0DF
  5
E0E0
331
E0FD
  5
E0FE
331
E11B
  5
E11C
331
E139
  5
E13A
331
E000
  5
E000
331
E01E
  5
E01E
331
E03C
  5
E03C
331
E05A
  5
E05B
331
E070
  5
E071
331
E08E
  5
E08F
331
E0CA
  5
E0CB
331
E0E0
  5
E0E1
331
E0FE
  5
E0FF
331
E11C
  5
E11D
331
E13A
  5
E13B
331
E001
  5
E001
331
E01F
  5
E01F
331
E03D
  5
E03D
331
E05B
  5
E05C
331
E071
  5
E072
331
E08F
  5
E090
331
E0CB
  5
E0CC
331
E0E1
  5
E0E2
331
E0FF
  5
E100
331
E11D
  5
E11E
331
E13B
  5
E13C
331
E002
  5
E002
331
E020
  5
E020
331
E03E
  5
E03E
331
E05C
  5
E05D
331
E072
  5
E073
331
E090
  5
E091
331
E0AE
  5
E0B1
331
E0CC
  5
E0CD
331
E0E2
  5
E0E3
331
E100
  5
E101
331
E11E
  5
E11F
331
E13C
  5
E13D
331
E003
  5
E003
331
E021
  5
E021
331
E03F
  5
E03F
331
E05D
  5
E05E
331
E073
  5
E074
331
E091
  5
E092
331
E0CD
  5
E0CE
331
E0E3
  5
E0E4
331
E101
  5
E102
331
E11F
  5
E120
331
E13D
  5
E13E
331
E004
  5
E004
331
E022
  5
E022
331
E040
  5
E040
331
E05E
  5
E05F
331
E074
  5
E075
331
E092
  5
E093
331
E0CE
  5
E0CF
331
E0E4
  5
E0E5
331
E102
  5
E103
331
E120
  5
E121
331
E13E
  5
E13F
331
E005
  5
E005
331
E023
  5
E023
331
E041
  5
E041
331
E05F
  5
E060
331
E075
  5
E076
331
E093
  5
E094
331
E0B1
  5
E0B4
331
E0CF
  5
E0D0
331
E0E5
  5
E0E6
331
E103
  5
E104
331
E121
  5
E122
331
E13F
  5
E140
331
E006
  5
E006
331
E024
  5
E024
331
E042
  5
E042
331
E076
  5
E077
331
E094
  5
E095
331
E0D0
  5
E0D1
331
E0E6
  5
E0E7
331
E104
  5
E105
331
E122
  5
E123
331
E140
  5
E141
331
E007
  5
E007
331
E025
  5
E025
331
E043
  5
E043
331
E077
  5
E078
331
E095
  5
E096
331
E0D1
  5
E0D2
331
E0E7
  5
E0E8
331
E105
  5
E106
331
E123
  5
E124
331
E141
  5
E142
331
E026
  5
E026
331
E044
  5
E044
331
E078
  5
E079
331
E096
  5
E097
331
E0B4
  5
E0B5
331
E0D2
  5
E0D3
331
E0E8
  5
E0E9
331
E106
  5
E107
331
E124
  5
E125
331
E142
  5
E143
331
E027
  5
E027
331
E045
  5
E045
331
E079
  5
E07A
331
E097
  5
E098
331
E0B5
  5
E0B8
331
E0D3
  5
E0D4
331
E0E9
  5
E0EA
331
E107
  5
E108
331
E125
  5
E126
331
E143
  5
E144
331
E046
  5
E046
331
E07A
  5
E07B
331
E098
  5
E099
331
E0D4
  5
E0D5
331
E0EA
  5
E0EB
331
E108
  5
E109
331
E126
  5
E127
331
E144
  5
E145
331
E047
  5
E047
331
E07B
  5
E07C
331
E099
  5
E09A
331
E0D5
  5
E0D6
331
E0EB
  5
E0EC
331
E109
  5
E10A
331
E127
  5
E128
331
E145
  5
E146
331
E07C
  5
E07D
331
E09A
  5
E09B
331
E0B8
  5
E0BB
331
E0D6
  5
E0D7
331
E0EC
  5
E0ED
331
E10A
  5
E10B
331
E128
  5
E129
331
E146
  5
E147
331
E07D
  5
E07E
331
E09B
  5
E09C
331
E0D7
  5
E0D8
331
E0ED
  5
E0EE
331
E10B
  5
E10C
331
E129
  5
E12A
331
E147
  5
E148
331
E07E
  5
E07F
331
E09C
  5
E09D
331
E0EE
  5
E0EF
331
E10C
  5
E10D
331
E12A
  5
E12B
331
E148
  5
E149
331
E07F
  5
E080
331
E09D
  5
E09E
331
E0BB
  5
E0BE
331
E0EF
  5
E0F0
331
E10D
  5
E10E
331
E12B
  5
E12C
331
E149
  5
E14A
331
E09E
  5
E09F
331
E0F0
  5
E0F1
331
E10E
  5
E10F
331
E12C
  5
E12D
331
E14A
  5
E14B
331
E09F
  5
E0A0
331
E0F1
  5
E0F2
331
E10F
  5
E110
331
E12D
  5
E12E
331
E14B
  5
E14C
331
E0BE
  5
E0C5
331
E0F2
  5
E0F3
331
E110
  5
E111
331
E12E
  5
E12F
331
E14C
  5
E6B2
331
E0F3
  5
E0F4
331
E111
  5
E112
331
E12F
  5
E130
331
E0F4
  5
E0F5
331
E112
  5
E113
331
E130
  5
E131
331
E0F5
  5
E0F6
331
E113
  5
E114
331
E131
  5
E132
331
E0F6
  5
E0F7
331
E114
  5
E115
331
E132
  5
E133
331
E0F7
  5
E0F8
331
E115
  5
E116
331
E133
  5
E134
331
E116
  5
E117
331
E134
  5
E135
331
E117
  5
E118
331
E135
  5
E136
331
E136
  5
E137
331
E137
  5
E138
331
DEE0
  5
DEE0
331
DEE1
  5
DEE1
331
DEE2
  5
DEE2
331
DEF8
  5
DEF8
331
DEE3
  5
DEE3
331
DEF9
  5
DEF9
331
DEE4
  5
DEE4
331
DEFA
  5
DEFA
331
DF18
  5
DF18
331
DEE5
  5
DEE5
331
DEFB
  5
DEFB
331
DF19
  5
DF19
331
DEE6
  5
DEE6
331
DEFC
  5
DEFC
331
DF1A
  5
DF1A
331
DF38
  5
DF38
331
DEE7
  5
DEE7
331
DEFD
  5
DEFD
331
DF1B
  5
DF1B
331
DF39
  5
DF39
331
DEE8
  5
DEE8
331
DEFE
  5
DEFE
331
DF1C
  5
DF1C
331
DF3A
  5
DF3A
331
DF58
  5
DF58
331
DEE9
  5
DEE9
331
DEFF
  5
DEFF
331
DF1D
  5
DF1D
331
DF3B
  5
DF3B
331
DF59
  5
DF59
331
DEEA
  5
DEEA
331
DF00
  5
DF00
331
DF1E
  5
DF1E
331
DF3C
  5
DF3C
331
DF5A
  5
DF5A
331
DF70
  5
DF70
331
DEEB
  5
DEEB
331
DF01
  5
DF01
331
DF1F
  5
DF1F
331
DF3D
  5
DF3D
331
DF5B
  5
DF5B
331
DF71
  5
DF71
331
DEEC
  5
DEEC
331
DF02
  5
DF02
331
DF20
  5
DF20
331
DF3E
  5
DF3E
331
DF5C
  5
DF5C
331
DF72
  5
DF72
331
DF90
  5
DF90
331
DEED
  5
DEED
331
DF03
  5
DF03
331
DF21
  5
DF21
331
DF3F
  5
DF3F
331
DF5D
  5
DF5D
331
DF73
  5
DF73
331
DF91
  5
DF91
331
DEEE
  5
DEEE
331
DF04
  5
DF04
331
DF22
  5
DF22
331
DF40
  5
DF40
331
DF5E
  5
DF5E
331
DF74
  5
DF74
331
DF92
  5
DF92
331
DFB0
  5
DFB0
331
DEEF
  5
DEEF
331
DF05
  5
DF05
331
DF23
  5
DF23
331
DF41
  5
DF41
331
DF5F
  5
DF5F
331
DF75
  5
DF75
331
DF93
  5
DF93
331
DFB1
  5
DFB1
331
DEF0
  5
DEF0
331
DF06
  5
DF06
331
DF24
  5
DF24
331
DF42
  5
DF42
331
DF60
  5
DF60
331
DF76
  5
DF76
331
DF94
  5
DF94
331
DFB2
  5
DFB2
331
DFD0
  5
DFD0
331
DEF1
  5
DEF1
331
DF07
  5
DF07
331
DF25
  5
DF25
331
DF43
  5
DF43
331
DF61
  5
DF61
331
DF77
  5
DF77
331
DF95
  5
DF95
331
DFB3
  5
DFB3
331
DFD1
  5
DFD1
331
DEF2
  5
DEF2
331
DF08
  5
DF08
331
DF26
  5
DF26
331
DF44
  5
DF44
331
DF62
  5
DF62
331
DF78
  5
DF78
331
DF96
  5
DF96
331
DFB4
  5
DFB4
331
DFD2
  5
DFD2
331
DED5
  5
DED5
331
DEF3
  5
DEF3
331
DF09
  5
DF09
331
DF27
  5
DF27
331
DF45
  5
DF45
331
DF63
  5
DF63
331
DF79
  5
DF79
331
DF97
  5
DF97
331
DFB5
  5
DFB5
331
DFD3
  5
DFD3
331
DED6
  5
DED6
331
DEF4
  5
DEF4
331
DF0A
  5
DF0A
331
DF28
  5
DF28
331
DF46
  5
DF46
331
DF64
  5
DF64
331
DF7A
  5
DF7A
331
DF98
  5
DF98
331
DFB6
  5
DFB6
331
DFD4
  5
DFD4
331
DED7
  5
DED7
331
DEF5
  5
DEF5
331
DF0B
  5
DF0B
331
DF29
  5
DF29
331
DF47
  5
DF47
331
DF65
  5
DF65
331
DF7B
  5
DF7B
331
DF99
  5
DF99
331
DFB7
  5
DFB7
331
DFD5
  5
DFD5
331
DED8
  5
DED8
331
DEF6
  5
DEF6
331
DF0C
  5
DF0C
331
DF2A
  5
DF2A
331
DF48
  5
DF48
331
DF66
  5
DF66
331
DF7C
  5
DF7C
331
DF9A
  5
DF9A
331
DFB8
  5
DFB8
331
DFD6
  5
DFD6
331
DED9
  5
DED9
331
DEF7
  5
DEF7
331
DF0D
  5
DF0D
331
DF2B
  5
DF2B
331
DF49
  5
DF49
331
DF67
  5
DF67
331
DF7D
  5
DF7D
331
DF9B
  5
DF9B
331
DFB9
  5
DFB9
331
DFD7
  5
DFD7
331
DEDA
  5
DEDA
331
DF0E
  5
DF0E
331
DF2C
  5
DF2C
331
DF4A
  5
DF4A
331
DF68
  5
DF68
331
DF7E
  5
DF7E
331
DF9C
  5
DF9C
331
DFBA
  5
DFBA
331
DFD8
  5
DFD8
331
DEDB
  5
DEDB
331
DF0F
  5
DF0F
331
DF2D
  5
DF2D
331
DF4B
  5
DF4B
331
DF69
  5
DF69
331
DF7F
  5
DF7F
331
DF9D
  5
DF9D
331
DFBB
  5
DFBB
331
DFD9
  5
DFD9
331
DEDC
  5
DEDC
331
DF10
  5
DF10
331
DF2E
  5
DF2E
331
DF4C
  5
DF4C
331
DF6A
  5
DF6A
331
DF80
  5
DF80
331
DF9E
  5
DF9E
331
DFBC
  5
DFBC
331
DFDA
  5
DFDA
331
DEDD
  5
DEDD
331
DF11
  5
DF11
331
DF2F
  5
DF2F
331
DF4D
  5
DF4D
331
DF6B
  5
DF6B
331
DF81
  5
DF81
331
DF9F
  5
DF9F
331
DFBD
  5
DFBD
331
DFDB
  5
DFDB
331
DEDE
  5
DEDE
331
DF12
  5
DF12
331
DF30
  5
DF30
331
DF4E
  5
DF4E
331
DF6C
  5
DF6C
331
DF82
  5
DF82
331
DFA0
  5
DFA0
331
DFBE
  5
DFBE
331
DFDC
  5
DFDC
331
DEDF
  5
DEDF
331
DF13
  5
DF13
331
DF31
  5
DF31
331
DF4F
  5
DF4F
331
DF6D
  5
DF6D
331
DF83
  5
DF83
331
DFA1
  5
DFA1
331
DFBF
  5
DFBF
331
DFDD
  5
DFDD
331
DF14
  5
DF14
331
DF32
  5
DF32
331
DF50
  5
DF50
331
DF6E
  5
DF6E
331
DF84
  5
DF84
331
DFA2
  5
DFA2
331
DFC0
  5
DFC0
331
DFDE
  5
DFDE
331
DF15
  5
DF15
331
DF33
  5
DF33
331
DF51
  5
DF51
331
DF6F
  5
DF6F
331
DF85
  5
DF85
331
DFA3
  5
DFA3
331
DFC1
  5
DFC1
331
DFDF
  5
DFDF
331
DF16
  5
DF16
331
DF34
  5
DF34
331
DF52
  5
DF52
331
DF86
  5
DF86
331
DFA4
  5
DFA4
331
DFC2
  5
DFC2
331
DFE0
  5
DFE0
331
DF17
  5
DF17
331
DF35
  5
DF35
331
DF53
  5
DF53
331
DF87
  5
DF87
331
DFA5
  5
DFA5
331
DFC3
  5
DFC3
331
DFE1
  5
DFE1
331
DF36
  5
DF36
331
DF54
  5
DF54
331
DF88
  5
DF88
331
DFA6
  5
DFA6
331
DFC4
  5
DFC4
331
DFE2
  5
DFE2
331
DF37
  5
DF37
331
DF55
  5
DF55
331
DF89
  5
DF89
331
DFA7
  5
DFA7
331
DFC5
  5
DFC5
331
DFE3
  5
DFE3
331
DF56
  5
DF56
331
DF8A
  5
DF8A
331
DFA8
  5
DFA8
331
DFC6
  5
DFC6
331
DFE4
  5
DFE4
331
DF57
  5
DF57
331
DF8B
  5
DF8B
331
DFA9
  5
DFA9
331
DFC7
  5
DFC7
331
DFE5
  5
DFE5
331
DF8C
  5
DF8C
331
DFAA
  5
DFAA
331
DFC8
  5
DFC8
331
DFE6
  5
DFE6
331
DF8D
  5
DF8D
331
DFAB
  5
DFAB
331
DFC9
  5
DFC9
331
DFE7
  5
DFE7
331
DF8E
  5
DF8E
331
DFAC
  5
DFAC
331
DFCA
  5
DFCA
331
DF8F
  5
DF8F
331
DFAD
  5
DFAD
331
DFCB
  5
DFCB
331
DFAE
  5
DFAE
331
DFCC
  5
DFCC
331
DFAF
  5
DFAF
331
DFCD
  5
DFCD
331
DFCE
  5
DFCE
331
DFCF
  5
DFCF
  0
DIMASSOC
  5
E0A7
102
{ACAD_REACTORS
330
E0A6
102
}
330
E0A6
100
AcDbDimAssoc
330
E0A5
 90
        2
 70
     0
 71
     0
  1
AcDbOsnapPointRef
 72
     3
331
E04C
 73
     2
 91
        0
 40
0.0
 10
0.0
 20
0.0
 30
0.0
 75
     0
  0
DIMASSOC
  5
E0AA
102
{ACAD_REACTORS
330
E0A9
102
}
330
E0A9
100
AcDbDimAssoc
330
E0A8
 90
        2
 70
     0
 71
     0
  1
AcDbOsnapPointRef
 72
     3
331
E04B
 73
     2
 91
        0
 40
0.0
 10
0.0
 20
0.0
 30
0.0
 75
     0
  0
DIMASSOC
  5
E0AD
102
{ACAD_REACTORS
330
E0AC
102
}
330
E0AC
100
AcDbDimAssoc
330
E0AB
 90
        2
 70
     0
 71
     0
  1
AcDbOsnapPointRef
 72
     3
331
E04D
 73
     2
 91
        0
 40
0.0
 10
0.0
 20
0.0
 30
0.0
 75
     0
  0
DIMASSOC
  5
E0B0
102
{ACAD_REACTORS
330
E0AF
102
}
330
E0AF
100
AcDbDimAssoc
330
E0AE
 90
        2
 70
     0
 71
     0
  1
AcDbOsnapPointRef
 72
     3
331
E04E
 73
     2
 91
        0
 40
0.0
 10
0.0
 20
0.0
 30
0.0
 75
     0
  0
DIMASSOC
  5
E0B3
102
{ACAD_REACTORS
330
E0B2
102
}
330
E0B2
100
AcDbDimAssoc
330
E0B1
 90
        2
 70
     0
 71
     0
  1
AcDbOsnapPointRef
 72
     3
331
E065
 73
     2
 91
        0
 40
0.0
 10
0.0
 20
0.0
 30
0.0
 75
     0
  0
DIMASSOC
  5
E0B7
102
{ACAD_REACTORS
330
E0B6
102
}
330
E0B6
100
AcDbDimAssoc
330
E0B5
 90
        1
 70
     0
 71
     0
  1
AcDbOsnapPointRef
 72
    13
331
E0B4
 73
     2
 91
        0
 40
0.0
 10
0.0
 20
0.0
 30
2.000000000000000E+50
 75
     0
  0
DIMASSOC
  5
E0BA
102
{ACAD_REACTORS
330
E0B9
102
}
330
E0B9
100
AcDbDimAssoc
330
E0B8
 90
        3
 70
     0
 71
     0
  1
AcDbOsnapPointRef
 72
     2
331
DF7D
 73
     2
 91
        0
 40
0.5
 10
0.0
 20
0.0
 30
0.0
 75
     0
  1
AcDbOsnapPointRef
 72
     6
331
E0A2
 73
     2
 91
        0
 40
0.1523865469348183
 10
0.0
 20
0.0
 30
0.0
332
DF71
 74
     2
 92
        0
 75
     0
  0
DIMASSOC
  5
E0BD
102
{ACAD_REACTORS
330
E0BC
102
}
330
E0BC
100
AcDbDimAssoc
330
E0BB
 90
        3
 70
     0
 71
     0
  1
AcDbOsnapPointRef
 72
    13
331
DF8C
 73
     2
 91
        0
 40
0.0
 10
0.0
 20
0.0
 30
2.000000000000000E+50
 75
     0
  1
AcDbOsnapPointRef
 72
     1
331
DF9C
 73
     2
 91
        0
 40
1.0
 10
0.0
 20
0.0
 30
2.000000000000000E+50
 75
     0
  0
DIMASSOC
  5
E0C0
102
{ACAD_REACTORS
330
E0BF
102
}
330
E0BF
100
AcDbDimAssoc
330
E0BE
 90
        3
 70
     0
 71
     0
  1
AcDbOsnapPointRef
 72
    13
331
E0A3
 73
     2
 91
        0
 40
0.0
 10
0.0
 20
0.0
 30
2.000000000000000E+50
 75
     0
  1
AcDbOsnapPointRef
 72
     1
331
E08E
 73
     2
 91
        0
 40
6.283185307179586
 10
0.0
 20
0.0
 30
2.000000000000000E+50
 75
     0
  0
LAYOUT
  5
22
102
{ACAD_REACTORS
330
1A
102
}
330
1A
100
AcDbPlotSettings
  1

  2
none_device
  4
ISO_A4_(210.00_x_297.00_MM)
  6

 40
7.5
 41
20.0
 42
7.5
 43
20.0
 44
210.0
 45
297.0
 46
11.54999923706054
 47
-13.65000009536743
 48
0.0
 49
0.0
140
0.0
141
0.0
142
1.0
143
8.704084754739808
 70
 11952
 72
     1
 73
     0
 74
     0
  7
123.ctb
 75
     0
147
0.1148885871608098
 76
     0
 77
     2
 78
   300
148
0.0
149
0.0
100
AcDbLayout
  1
Model
 70
     1
 71
     0
 10
0.0
 20
0.0
 11
12.0
 21
9.0
 12
0.0
 22
0.0
 32
0.0
 14
0.0
 24
0.0
 34
0.0
 15
0.0
 25
0.0
 35
0.0
146
0.0
 13
0.0
 23
0.0
 33
0.0
 16
1.0
 26
0.0
 36
0.0
 17
0.0
 27
1.0
 37
0.0
 76
     0
330
1F
1001
ACAD_PSEXT
1000
None
1000
None
1000
Not applicable
1000
The layout will not be plotted unless a new plotter configuration name is selected.
1070
     0
  0
LAYOUT
  5
D3
102
{ACAD_REACTORS
330
1A
102
}
330
1A
100
AcDbPlotSettings
  1

  2
C:\Documents and Settings\basas\Application Data\Autodesk\AutoCAD 2005\R16.1\enu\plotters\Default Windows System Printer.pc3
  4

  6

 40
0.0
 41
0.0
 42
0.0
 43
0.0
 44
0.0
 45
0.0
 46
0.0
 47
0.0
 48
0.0
 49
0.0
140
0.0
141
0.0
142
1.0
143
1.0
 70
   688
 72
     0
 73
     0
 74
     5
  7
123.ctb
 75
    16
147
1.0
 76
     0
 77
     2
 78
   300
148
0.0
149
0.0
100
AcDbLayout
  1
布局1
 70
     1
 71
     1
 10
0.0
 20
0.0
 11
12.0
 21
9.0
 12
0.0
 22
0.0
 32
0.0
 14
25.69999999999999
 24
19.5
 34
0.0
 15
231.3
 25
175.5
 35
0.0
146
0.0
 13
0.0
 23
0.0
 33
0.0
 16
1.0
 26
0.0
 36
0.0
 17
0.0
 27
1.0
 37
0.0
 76
     0
330
D2
  0
LAYOUT
  5
D7
102
{ACAD_REACTORS
330
1A
102
}
330
1A
100
AcDbPlotSettings
  1

  2
C:\Documents and Settings\basas\Application Data\Autodesk\AutoCAD 2005\R16.1\enu\plotters\Default Windows System Printer.pc3
  4

  6

 40
0.0
 41
0.0
 42
0.0
 43
0.0
 44
0.0
 45
0.0
 46
0.0
 47
0.0
 48
0.0
 49
0.0
140
0.0
141
0.0
142
1.0
143
1.0
 70
   688
 72
     0
 73
     0
 74
     5
  7
123.ctb
 75
    16
147
1.0
 76
     0
 77
     2
 78
   300
148
0.0
149
0.0
100
AcDbLayout
  1
布局2
 70
     1
 71
     2
 10
0.0
 20
0.0
 11
12.0
 21
9.0
 12
0.0
 22
0.0
 32
0.0
 14
0.0
 24
0.0
 34
0.0
 15
0.0
 25
0.0
 35
0.0
146
0.0
 13
0.0
 23
0.0
 33
0.0
 16
1.0
 26
0.0
 36
0.0
 17
0.0
 27
1.0
 37
0.0
 76
     0
330
D6
  0
MATERIAL
  5
EE
102
{ACAD_REACTORS
330
6A
102
}
330
6A
100
AcDbMaterial
  1
ByBlock
  2

 94
       63
  0
MATERIAL
  5
ED
102
{ACAD_REACTORS
330
6A
102
}
330
6A
100
AcDbMaterial
  1
ByLayer
  2

 94
       63
  0
MATERIAL
  5
EF
102
{ACAD_REACTORS
330
6A
102
}
330
6A
100
AcDbMaterial
  1
Global
  2

 94
       63
  0
MLEADERSTYLE
  5
D9BE
102
{ACAD_REACTORS
330
D9BD
102
}
330
D9BD
100
AcDbMLeaderStyle
170
     2
171
     1
172
     0
 90
        2
 40
0.0
 41
0.0
173
     1
 91
-1056964608
340
14
 92
       -2
290
     1
 42
0.09
291
     1
 43
8.0
  3
Standard
341
0
 44
0.18
300

342
11
174
     1
178
     1
175
     1
176
     0
 93
-1056964608
 45
0.18
292
     0
297
     0
 46
0.18
343
0
 94
-1056964608
 47
1.0
 49
1.0
140
1.0
293
     1
141
0.0
294
     1
177
     0
142
1.0
295
     0
296
     0
143
3.75
  0
MLINESTYLE
  5
18
102
{ACAD_REACTORS
330
17
102
}
330
17
100
AcDbMlineStyle
  2
STANDARD
 70
     0
  3

 62
   256
 51
90.0
 52
90.0
 71
     2
 49
0.5
 62
   256
  6
BYLAYER
 49
-0.5
 62
   256
  6
BYLAYER
  0
ACDBPLACEHOLDER
  5
F
102
{ACAD_REACTORS
330
E
102
}
330
E
  0
SCALE
  5
D99C
102
{ACAD_REACTORS
330
D99B
102
}
330
D99B
100
AcDbScale
 70
     0
300
1:1
140
1.0
141
1.0
290
     1
  0
SCALE
  5
D99D
102
{ACAD_REACTORS
330
D99B
102
}
330
D99B
100
AcDbScale
 70
     0
300
1:2
140
1.0
141
2.0
290
     0
  0
SCALE
  5
D99E
102
{ACAD_REACTORS
330
D99B
102
}
330
D99B
100
AcDbScale
 70
     0
300
1:4
140
1.0
141
4.0
290
     0
  0
SCALE
  5
D99F
102
{ACAD_REACTORS
330
D99B
102
}
330
D99B
100
AcDbScale
 70
     0
300
1:5
140
1.0
141
5.0
290
     0
  0
SCALE
  5
D9A0
102
{ACAD_REACTORS
330
D99B
102
}
330
D99B
100
AcDbScale
 70
     0
300
1:8
140
1.0
141
8.0
290
     0
  0
SCALE
  5
D9A1
102
{ACAD_REACTORS
330
D99B
102
}
330
D99B
100
AcDbScale
 70
     0
300
1:10
140
1.0
141
10.0
290
     0
  0
SCALE
  5
D9A2
102
{ACAD_REACTORS
330
D99B
102
}
330
D99B
100
AcDbScale
 70
     0
300
1:16
140
1.0
141
16.0
290
     0
  0
SCALE
  5
D9A3
102
{ACAD_REACTORS
330
D99B
102
}
330
D99B
100
AcDbScale
 70
     0
300
1:20
140
1.0
141
20.0
290
     0
  0
SCALE
  5
D9A4
102
{ACAD_REACTORS
330
D99B
102
}
330
D99B
100
AcDbScale
 70
     0
300
1:30
140
1.0
141
30.0
290
     0
  0
SCALE
  5
D9A5
102
{ACAD_REACTORS
330
D99B
102
}
330
D99B
100
AcDbScale
 70
     0
300
1:40
140
1.0
141
40.0
290
     0
  0
SCALE
  5
D9A6
102
{ACAD_REACTORS
330
D99B
102
}
330
D99B
100
AcDbScale
 70
     0
300
1:50
140
1.0
141
50.0
290
     0
  0
SCALE
  5
D9A7
102
{ACAD_REACTORS
330
D99B
102
}
330
D99B
100
AcDbScale
 70
     0
300
1:100
140
1.0
141
100.0
290
     0
  0
SCALE
  5
D9A8
102
{ACAD_REACTORS
330
D99B
102
}
330
D99B
100
AcDbScale
 70
     0
300
2:1
140
2.0
141
1.0
290
     0
  0
SCALE
  5
D9A9
102
{ACAD_REACTORS
330
D99B
102
}
330
D99B
100
AcDbScale
 70
     0
300
4:1
140
4.0
141
1.0
290
     0
  0
SCALE
  5
D9AA
102
{ACAD_REACTORS
330
D99B
102
}
330
D99B
100
AcDbScale
 70
     0
300
8:1
140
8.0
141
1.0
290
     0
  0
SCALE
  5
D9AB
102
{ACAD_REACTORS
330
D99B
102
}
330
D99B
100
AcDbScale
 70
     0
300
10:1
140
10.0
141
1.0
290
     0
  0
SCALE
  5
D9AC
102
{ACAD_REACTORS
330
D99B
102
}
330
D99B
100
AcDbScale
 70
     0
300
100:1
140
100.0
141
1.0
290
     0
  0
SCALE
  5
D9AD
102
{ACAD_REACTORS
330
D99B
102
}
330
D99B
100
AcDbScale
 70
     0
300
1/128" = 1'-0"
140
0.0078125
141
12.0
290
     0
  0
SCALE
  5
D9AE
102
{ACAD_REACTORS
330
D99B
102
}
330
D99B
100
AcDbScale
 70
     0
300
1/64" = 1'-0"
140
0.015625
141
12.0
290
     0
  0
SCALE
  5
D9AF
102
{ACAD_REACTORS
330
D99B
102
}
330
D99B
100
AcDbScale
 70
     0
300
1/32" = 1'-0"
140
0.03125
141
12.0
290
     0
  0
SCALE
  5
D9B0
102
{ACAD_REACTORS
330
D99B
102
}
330
D99B
100
AcDbScale
 70
     0
300
1/16" = 1'-0"
140
0.0625
141
12.0
290
     0
  0
SCALE
  5
D9B1
102
{ACAD_REACTORS
330
D99B
102
}
330
D99B
100
AcDbScale
 70
     0
300
3/32" = 1'-0"
140
0.09375
141
12.0
290
     0
  0
SCALE
  5
D9B2
102
{ACAD_REACTORS
330
D99B
102
}
330
D99B
100
AcDbScale
 70
     0
300
1/8" = 1'-0"
140
0.125
141
12.0
290
     0
  0
SCALE
  5
D9B3
102
{ACAD_REACTORS
330
D99B
102
}
330
D99B
100
AcDbScale
 70
     0
300
3/16" = 1'-0"
140
0.1875
141
12.0
290
     0
  0
SCALE
  5
D9B4
102
{ACAD_REACTORS
330
D99B
102
}
330
D99B
100
AcDbScale
 70
     0
300
1/4" = 1'-0"
140
0.25
141
12.0
290
     0
  0
SCALE
  5
D9B5
102
{ACAD_REACTORS
330
D99B
102
}
330
D99B
100
AcDbScale
 70
     0
300
3/8" = 1'-0"
140
0.375
141
12.0
290
     0
  0
SCALE
  5
D9B6
102
{ACAD_REACTORS
330
D99B
102
}
330
D99B
100
AcDbScale
 70
     0
300
1/2" = 1'-0"
140
0.5
141
12.0
290
     0
  0
SCALE
  5
D9B7
102
{ACAD_REACTORS
330
D99B
102
}
330
D99B
100
AcDbScale
 70
     0
300
3/4" = 1'-0"
140
0.75
141
12.0
290
     0
  0
SCALE
  5
D9B8
102
{ACAD_REACTORS
330
D99B
102
}
330
D99B
100
AcDbScale
 70
     0
300
1" = 1'-0"
140
1.0
141
12.0
290
     0
  0
SCALE
  5
D9B9
102
{ACAD_REACTORS
330
D99B
102
}
330
D99B
100
AcDbScale
 70
     0
300
1-1/2" = 1'-0"
140
1.5
141
12.0
290
     0
  0
SCALE
  5
D9BA
102
{ACAD_REACTORS
330
D99B
102
}
330
D99B
100
AcDbScale
 70
     0
300
3" = 1'-0"
140
3.0
141
12.0
290
     0
  0
SCALE
  5
D9BB
102
{ACAD_REACTORS
330
D99B
102
}
330
D99B
100
AcDbScale
 70
     0
300
6" = 1'-0"
140
6.0
141
12.0
290
     0
  0
SCALE
  5
D9BC
102
{ACAD_REACTORS
330
D99B
102
}
330
D99B
100
AcDbScale
 70
     0
300
1'-0" = 1'-0"
140
12.0
141
12.0
290
     0
  0
TABLESTYLE
  5
7F
102
{ACAD_XDICTIONARY
360
EBDC
102
}
102
{ACAD_REACTORS
330
7E
102
}
330
7E
100
AcDbTableStyle
  3
Standard
 70
     0
 71
     0
 40
0.06
 41
0.06
280
     0
281
     0
  7
Standard
140
4.5
170
     2
 62
     0
 63
   257
283
     1
 90
      512
 91
        0
  1

274
    -2
284
     1
 64
     0
275
    -2
285
     1
 65
     0
276
    -2
286
     1
 66
     0
277
    -2
287
     1
 67
     0
278
    -2
288
     1
 68
     0
279
    -2
289
     1
 69
     0
  7
Standard
140
6.0
170
     5
 62
     0
 63
   257
283
     1
 90
      512
 91
        0
  1

274
    -2
284
     1
 64
     0
275
    -2
285
     1
 65
     0
276
    -2
286
     1
 66
     0
277
    -2
287
     1
 67
     0
278
    -2
288
     1
 68
     0
279
    -2
289
     1
 69
     0
  7
Standard
140
4.5
170
     5
 62
     0
 63
   257
283
     1
 90
      512
 91
        0
  1

274
    -2
284
     1
 64
     0
275
    -2
285
     1
 65
     0
276
    -2
286
     1
 66
     0
277
    -2
287
     1
 67
     0
278
    -2
288
     1
 68
     0
279
    -2
289
     1
 69
     0
  0
VISUALSTYLE
  5
F6
102
{ACAD_XDICTIONARY
360
EBE9
102
}
102
{ACAD_REACTORS
330
F0
102
}
330
F0
100
AcDbVisualStyle
  2
2dWireframe
 70
     4
 71
     0
 72
     2
 73
     1
 90
        0
 40
-0.6
 41
-30.0
 62
     5
 63
     7
421
 16777215
 74
     1
 91
        4
 64
     7
 65
   257
 75
     1
175
     1
 42
1.0
 92
        0
 66
   257
 43
1.0
 76
     1
 77
     6
 78
     2
 67
     7
 79
     5
170
     0
171
     0
290
     0
174
     0
 93
        1
 44
0.0
173
     0
291
     0
 45
0.0
  0
VISUALSTYLE
  5
F8
102
{ACAD_XDICTIONARY
360
EBED
102
}
102
{ACAD_REACTORS
330
F0
102
}
330
F0
100
AcDbVisualStyle
  2
3D Hidden
 70
     6
 71
     1
 72
     2
 73
     2
 90
        0
 40
-0.6
 41
-30.0
 62
     5
 63
     7
421
 16777215
 74
     2
 91
        2
 64
     7
 65
   257
 75
     2
175
     1
 42
40.0
 92
        0
 66
   257
 43
1.0
 76
     1
 77
     6
 78
     2
 67
     7
 79
     3
170
     0
171
     0
290
     0
174
     0
 93
        1
 44
0.0
173
     0
291
     0
 45
0.0
  0
VISUALSTYLE
  5
F7
102
{ACAD_XDICTIONARY
360
EBEB
102
}
102
{ACAD_REACTORS
330
F0
102
}
330
F0
100
AcDbVisualStyle
  2
3dWireframe
 70
     5
 71
     0
 72
     2
 73
     1
 90
        0
 40
-0.6
 41
-30.0
 62
     5
 63
     7
421
 16777215
 74
     1
 91
        4
 64
     7
 65
   257
 75
     1
175
     1
 42
1.0
 92
        0
 66
   257
 43
1.0
 76
     1
 77
     6
 78
     2
 67
     7
 79
     5
170
     0
171
     0
290
     0
174
     0
 93
        1
 44
0.0
173
     0
291
     0
 45
0.0
  0
VISUALSTYLE
  5
F5
102
{ACAD_XDICTIONARY
360
EBE7
102
}
102
{ACAD_REACTORS
330
F0
102
}
330
F0
100
AcDbVisualStyle
  2
Basic
 70
     7
 71
     1
 72
     0
 73
     1
 90
        0
 40
-0.6
 41
-30.0
 62
     5
 63
     7
421
 16777215
 74
     0
 91
        4
 64
     7
 65
   257
 75
     1
175
     1
 42
1.0
 92
        8
 66
     7
 43
1.0
 76
     1
 77
     6
 78
     2
 67
     7
 79
     5
170
     0
171
     0
290
     0
174
     0
 93
        1
 44
0.0
173
     0
291
     1
 45
0.0
  0
VISUALSTYLE
  5
FC
102
{ACAD_XDICTIONARY
360
EBF5
102
}
102
{ACAD_REACTORS
330
F0
102
}
330
F0
100
AcDbVisualStyle
  2
Brighten
 70
    12
 71
     2
 72
     2
 73
     1
 90
        0
 40
-0.6
 41
-30.0
 62
     5
 63
     7
421
 16777215
 74
     1
 91
        4
 64
     7
 65
   257
 75
     1
175
     1
 42
1.0
 92
        8
 66
     7
 43
1.0
 76
     1
 77
     6
 78
     2
 67
     7
 79
     5
170
     0
171
     0
290
     0
174
     0
 93
        1
 44
50.0
173
     0
291
     1
 45
0.0
  0
VISUALSTYLE
  5
100
102
{ACAD_XDICTIONARY
360
EBFD
102
}
102
{ACAD_REACTORS
330
F0
102
}
330
F0
100
AcDbVisualStyle
  2
ColorChange
 70
    16
 71
     2
 72
     2
 73
     3
 90
        0
 40
-0.6
 41
-30.0
 62
     5
 63
     8
421
  8421504
 74
     1
 91
        4
 64
     7
 65
   257
 75
     1
175
     1
 42
1.0
 92
        8
 66
     8
424
  8421504
 43
1.0
 76
     1
 77
     6
 78
     2
 67
     7
 79
     5
170
     0
171
     0
290
     0
174
     0
 93
        1
 44
0.0
173
     0
291
     1
 45
0.0
  0
VISUALSTYLE
  5
F9
102
{ACAD_XDICTIONARY
360
EBEF
102
}
102
{ACAD_REACTORS
330
F0
102
}
330
F0
100
AcDbVisualStyle
  2
Conceptual
 70
     9
 71
     3
 72
     2
 73
     1
 90
        0
 40
-0.6
 41
-30.0
 62
     5
 63
     7
421
 16777215
 74
     2
 91
        2
 64
     7
 65
   257
 75
     1
175
     1
 42
40.0
 92
        8
 66
     7
 43
1.0
 76
     1
 77
     6
 78
     2
 67
     7
 79
     3
170
     0
171
     0
290
     0
174
     0
 93
        1
 44
0.0
173
     0
291
     0
 45
0.0
  0
VISUALSTYLE
  5
FB
102
{ACAD_XDICTIONARY
360
EBF3
102
}
102
{ACAD_REACTORS
330
F0
102
}
330
F0
100
AcDbVisualStyle
  2
Dim
 70
    11
 71
     2
 72
     2
 73
     1
 90
        0
 40
-0.6
 41
-30.0
 62
     5
 63
     7
421
 16777215
 74
     1
 91
        4
 64
     7
 65
   257
 75
     1
175
     1
 42
1.0
 92
        8
 66
     7
 43
1.0
 76
     1
 77
     6
 78
     2
 67
     7
 79
     5
170
     0
171
     0
290
     0
174
     0
 93
        1
 44
-50.0
173
     0
291
     1
 45
0.0
  0
VISUALSTYLE
  5
FF
102
{ACAD_XDICTIONARY
360
EBFB
102
}
102
{ACAD_REACTORS
330
F0
102
}
330
F0
100
AcDbVisualStyle
  2
Facepattern
 70
    15
 71
     2
 72
     2
 73
     1
 90
        0
 40
-0.6
 41
-30.0
 62
     5
 63
     7
421
 16777215
 74
     1
 91
        4
 64
     7
 65
   257
 75
     1
175
     1
 42
1.0
 92
        8
 66
     7
 43
1.0
 76
     1
 77
     6
 78
     2
 67
     7
 79
     5
170
     0
171
     0
290
     0
174
     0
 93
        1
 44
0.0
173
     0
291
     1
 45
0.0
  0
VISUALSTYLE
  5
F1
102
{ACAD_XDICTIONARY
360
EBDF
102
}
102
{ACAD_REACTORS
330
F0
102
}
330
F0
100
AcDbVisualStyle
  2
Flat
 70
     0
 71
     2
 72
     1
 73
     1
 90
        2
 40
-0.6
 41
30.0
 62
     5
 63
     7
421
 16777215
 74
     0
 91
        4
 64
     7
 65
   257
 75
     1
175
     1
 42
1.0
 92
        8
 66
     7
 43
1.0
 76
     1
 77
     6
 78
     2
 67
     7
 79
     5
170
     0
171
     0
290
     0
174
     0
 93
        1
 44
0.0
173
     0
291
     1
 45
0.0
  0
VISUALSTYLE
  5
F2
102
{ACAD_XDICTIONARY
360
EBE1
102
}
102
{ACAD_REACTORS
330
F0
102
}
330
F0
100
AcDbVisualStyle
  2
FlatWithEdges
 70
     1
 71
     2
 72
     1
 73
     1
 90
        2
 40
-0.6
 41
30.0
 62
     5
 63
     7
421
 16777215
 74
     1
 91
        4
 64
     7
 65
   257
 75
     1
175
     1
 42
1.0
 92
        0
 66
   257
 43
1.0
 76
     1
 77
     6
 78
     2
 67
     7
 79
     5
170
     0
171
     0
290
     0
174
     0
 93
        1
 44
0.0
173
     0
291
     1
 45
0.0
  0
VISUALSTYLE
  5
F3
102
{ACAD_XDICTIONARY
360
EBE3
102
}
102
{ACAD_REACTORS
330
F0
102
}
330
F0
100
AcDbVisualStyle
  2
Gouraud
 70
     2
 71
     2
 72
     2
 73
     1
 90
        2
 40
-0.6
 41
30.0
 62
     5
 63
     7
421
 16777215
 74
     0
 91
        4
 64
     7
 65
   257
 75
     1
175
     1
 42
1.0
 92
        0
 66
     7
 43
1.0
 76
     1
 77
     6
 78
     2
 67
     7
 79
     5
170
     0
171
     0
290
     0
174
     0
 93
        1
 44
0.0
173
     0
291
     1
 45
0.0
  0
VISUALSTYLE
  5
F4
102
{ACAD_XDICTIONARY
360
EBE5
102
}
102
{ACAD_REACTORS
330
F0
102
}
330
F0
100
AcDbVisualStyle
  2
GouraudWithEdges
 70
     3
 71
     2
 72
     2
 73
     1
 90
        2
 40
-0.6
 41
30.0
 62
     5
 63
     7
421
 16777215
 74
     1
 91
        4
 64
     7
 65
   257
 75
     1
175
     1
 42
1.0
 92
        0
 66
   257
 43
1.0
 76
     1
 77
     6
 78
     2
 67
     7
 79
     5
170
     0
171
     0
290
     0
174
     0
 93
        1
 44
0.0
173
     0
291
     1
 45
0.0
  0
VISUALSTYLE
  5
FE
102
{ACAD_XDICTIONARY
360
EBF9
102
}
102
{ACAD_REACTORS
330
F0
102
}
330
F0
100
AcDbVisualStyle
  2
Linepattern
 70
    14
 71
     2
 72
     2
 73
     1
 90
        0
 40
-0.6
 41
-30.0
 62
     5
 63
     7
421
 16777215
 74
     1
 91
        4
 64
     7
 65
   257
 75
     7
175
     7
 42
1.0
 92
        8
 66
     7
 43
1.0
 76
     1
 77
     6
 78
     2
 67
     7
 79
     5
170
     0
171
     0
290
     0
174
     0
 93
        1
 44
0.0
173
     0
291
     1
 45
0.0
  0
VISUALSTYLE
  5
FA
102
{ACAD_XDICTIONARY
360
EBF1
102
}
102
{ACAD_REACTORS
330
F0
102
}
330
F0
100
AcDbVisualStyle
  2
Realistic
 70
     8
 71
     2
 72
     2
 73
     1
 90
        0
 40
-0.6
 41
-30.0
 62
     5
 63
     7
421
 16777215
 74
     1
 91
        0
 64
     7
 65
   257
 75
     1
175
     1
 42
1.0
 92
        8
 66
     8
424
  7895160
 43
1.0
 76
     1
 77
     6
 78
     2
 67
     7
 79
     5
170
     0
171
     0
290
     0
174
     0
 93
       13
 44
0.0
173
     0
291
     0
 45
0.0
  0
VISUALSTYLE
  5
FD
102
{ACAD_XDICTIONARY
360
EBF7
102
}
102
{ACAD_REACTORS
330
F0
102
}
330
F0
100
AcDbVisualStyle
  2
Thicken
 70
    13
 71
     2
 72
     2
 73
     1
 90
        0
 40
-0.6
 41
-30.0
 62
     5
 63
     7
421
 16777215
 74
     1
 91
        4
 64
     7
 65
   257
 75
     1
175
     1
 42
1.0
 92
       12
 66
     7
 43
1.0
 76
     1
 77
     6
 78
     2
 67
     7
 79
     5
170
     0
171
     0
290
     0
174
     0
 93
        1
 44
0.0
173
     0
291
     1
 45
0.0
  0
DICTIONARYVAR
  5
D9C4
102
{ACAD_REACTORS
330
5E
102
}
330
5E
100
DictionaryVariables
280
     0
  1
STANDARD
  0
DICTIONARYVAR
  5
84
102
{ACAD_REACTORS
330
5E
102
}
330
5E
100
DictionaryVariables
280
     0
  1
STANDARD
  0
DICTIONARYVAR
  5
5F
102
{ACAD_REACTORS
330
5E
102
}
330
5E
100
DictionaryVariables
280
     0
  1
2
  0
DICTIONARYVAR
  5
63
102
{ACAD_REACTORS
330
5E
102
}
330
5E
100
DictionaryVariables
280
     0
  1
1
  0
XRECORD
  5
2607
102
{ACAD_REACTORS
330
2606
102
}
330
2606
100
AcDbXrecord
280
     1
330
0
  0
VLO-VL
  5
124
102
{ACAD_REACTORS
330
123
102
}
330
123
100
vlo_VL
 90
   -64512
 91
       12
 92
        1
 40
2.5
300
(&VLO-R . 0)
  0
DICTIONARY
  5
EBDC
330
7F
100
AcDbDictionary
280
     1
281
     1
  3
ACAD_ROUNDTRIP_2008_TABLESTYLE_CELLSTYLEMAP
360
EBDD
  0
DICTIONARY
  5
EBE9
330
F6
100
AcDbDictionary
280
     1
281
     1
  3
ACAD_XREC_ROUNDTRIP
360
EBEA
  0
DICTIONARY
  5
EBED
330
F8
100
AcDbDictionary
280
     1
281
     1
  3
ACAD_XREC_ROUNDTRIP
360
EBEE
  0
DICTIONARY
  5
EBEB
330
F7
100
AcDbDictionary
280
     1
281
     1
  3
ACAD_XREC_ROUNDTRIP
360
EBEC
  0
DICTIONARY
  5
EBE7
330
F5
100
AcDbDictionary
280
     1
281
     1
  3
ACAD_XREC_ROUNDTRIP
360
EBE8
  0
DICTIONARY
  5
EBF5
330
FC
100
AcDbDictionary
280
     1
281
     1
  3
ACAD_XREC_ROUNDTRIP
360
EBF6
  0
DICTIONARY
  5
EBFD
330
100
100
AcDbDictionary
280
     1
281
     1
  3
ACAD_XREC_ROUNDTRIP
360
EBFE
  0
DICTIONARY
  5
EBEF
330
F9
100
AcDbDictionary
280
     1
281
     1
  3
ACAD_XREC_ROUNDTRIP
360
EBF0
  0
DICTIONARY
  5
EBF3
330
FB
100
AcDbDictionary
280
     1
281
     1
  3
ACAD_XREC_ROUNDTRIP
360
EBF4
  0
DICTIONARY
  5
EBFB
330
FF
100
AcDbDictionary
280
     1
281
     1
  3
ACAD_XREC_ROUNDTRIP
360
EBFC
  0
DICTIONARY
  5
EBDF
330
F1
100
AcDbDictionary
280
     1
281
     1
  3
ACAD_XREC_ROUNDTRIP
360
EBE0
  0
DICTIONARY
  5
EBE1
330
F2
100
AcDbDictionary
280
     1
281
     1
  3
ACAD_XREC_ROUNDTRIP
360
EBE2
  0
DICTIONARY
  5
EBE3
330
F3
100
AcDbDictionary
280
     1
281
     1
  3
ACAD_XREC_ROUNDTRIP
360
EBE4
  0
DICTIONARY
  5
EBE5
330
F4
100
AcDbDictionary
280
     1
281
     1
  3
ACAD_XREC_ROUNDTRIP
360
EBE6
  0
DICTIONARY
  5
EBF9
330
FE
100
AcDbDictionary
280
     1
281
     1
  3
ACAD_XREC_ROUNDTRIP
360
EBFA
  0
DICTIONARY
  5
EBF1
330
FA
100
AcDbDictionary
280
     1
281
     1
  3
ACAD_XREC_ROUNDTRIP
360
EBF2
  0
DICTIONARY
  5
EBF7
330
FD
100
AcDbDictionary
280
     1
281
     1
  3
ACAD_XREC_ROUNDTRIP
360
EBF8
  0
CELLSTYLEMAP
  5
EBDD
102
{ACAD_REACTORS
330
EBDC
102
}
330
EBDC
100
AcDbCellStyleMap
 90
        3
300
CELLSTYLE
  1
TABLEFORMAT_BEGIN
 90
        5
170
     1
 91
        0
 92
        0
 62
   257
 93
        1
300
CONTENTFORMAT
  1
CONTENTFORMAT_BEGIN
 90
        0
 91
        0
 92
      512
 93
        0
300

 40
0.0
140
1.0
 94
        5
 62
     0
340
11
144
6.0
309
CONTENTFORMAT_END
171
     1
301
MARGIN
  1
CELLMARGIN_BEGIN
 40
1.5
 40
1.5
 40
1.5
 40
1.5
 40
4.5
 40
4.5
309
CELLMARGIN_END
 94
        6
 95
        1
302
GRIDFORMAT
  1
GRIDFORMAT_BEGIN
 90
        0
 91
        1
 62
     0
 92
       -2
340
0
 93
        0
 40
0.045
309
GRIDFORMAT_END
 95
        2
302
GRIDFORMAT
  1
GRIDFORMAT_BEGIN
 90
        0
 91
        1
 62
     0
 92
       -2
340
0
 93
        0
 40
0.045
309
GRIDFORMAT_END
 95
        4
302
GRIDFORMAT
  1
GRIDFORMAT_BEGIN
 90
        0
 91
        1
 62
     0
 92
       -2
340
0
 93
        0
 40
0.045
309
GRIDFORMAT_END
 95
        8
302
GRIDFORMAT
  1
GRIDFORMAT_BEGIN
 90
        0
 91
        1
 62
     0
 92
       -2
340
0
 93
        0
 40
0.045
309
GRIDFORMAT_END
 95
       16
302
GRIDFORMAT
  1
GRIDFORMAT_BEGIN
 90
        0
 91
        1
 62
     0
 92
       -2
340
0
 93
        0
 40
0.045
309
GRIDFORMAT_END
 95
       32
302
GRIDFORMAT
  1
GRIDFORMAT_BEGIN
 90
        0
 91
        1
 62
     0
 92
       -2
340
0
 93
        0
 40
0.045
309
GRIDFORMAT_END
309
TABLEFORMAT_END
  1
CELLSTYLE_BEGIN
 90
        1
 91
        1
300
_TITLE
309
CELLSTYLE_END
300
CELLSTYLE
  1
TABLEFORMAT_BEGIN
 90
        5
170
     1
 91
        0
 92
        0
 62
   257
 93
        1
300
CONTENTFORMAT
  1
CONTENTFORMAT_BEGIN
 90
        0
 91
        0
 92
      512
 93
        0
300

 40
0.0
140
1.0
 94
        5
 62
     0
340
11
144
4.5
309
CONTENTFORMAT_END
171
     1
301
MARGIN
  1
CELLMARGIN_BEGIN
 40
1.5
 40
1.5
 40
1.5
 40
1.5
 40
4.5
 40
4.5
309
CELLMARGIN_END
 94
        6
 95
        1
302
GRIDFORMAT
  1
GRIDFORMAT_BEGIN
 90
        0
 91
        1
 62
     0
 92
       -2
340
0
 93
        0
 40
0.045
309
GRIDFORMAT_END
 95
        2
302
GRIDFORMAT
  1
GRIDFORMAT_BEGIN
 90
        0
 91
        1
 62
     0
 92
       -2
340
0
 93
        0
 40
0.045
309
GRIDFORMAT_END
 95
        4
302
GRIDFORMAT
  1
GRIDFORMAT_BEGIN
 90
        0
 91
        1
 62
     0
 92
       -2
340
0
 93
        0
 40
0.045
309
GRIDFORMAT_END
 95
        8
302
GRIDFORMAT
  1
GRIDFORMAT_BEGIN
 90
        0
 91
        1
 62
     0
 92
       -2
340
0
 93
        0
 40
0.045
309
GRIDFORMAT_END
 95
       16
302
GRIDFORMAT
  1
GRIDFORMAT_BEGIN
 90
        0
 91
        1
 62
     0
 92
       -2
340
0
 93
        0
 40
0.045
309
GRIDFORMAT_END
 95
       32
302
GRIDFORMAT
  1
GRIDFORMAT_BEGIN
 90
        0
 91
        1
 62
     0
 92
       -2
340
0
 93
        0
 40
0.045
309
GRIDFORMAT_END
309
TABLEFORMAT_END
  1
CELLSTYLE_BEGIN
 90
        2
 91
        1
300
_HEADER
309
CELLSTYLE_END
300
CELLSTYLE
  1
TABLEFORMAT_BEGIN
 90
        5
170
     1
 91
        0
 92
        0
 62
   257
 93
        1
300
CONTENTFORMAT
  1
CONTENTFORMAT_BEGIN
 90
        0
 91
        0
 92
      512
 93
        0
300

 40
0.0
140
1.0
 94
        2
 62
     0
340
11
144
4.5
309
CONTENTFORMAT_END
171
     1
301
MARGIN
  1
CELLMARGIN_BEGIN
 40
1.5
 40
1.5
 40
1.5
 40
1.5
 40
4.5
 40
4.5
309
CELLMARGIN_END
 94
        6
 95
        1
302
GRIDFORMAT
  1
GRIDFORMAT_BEGIN
 90
        0
 91
        1
 62
     0
 92
       -2
340
0
 93
        0
 40
0.045
309
GRIDFORMAT_END
 95
        2
302
GRIDFORMAT
  1
GRIDFORMAT_BEGIN
 90
        0
 91
        1
 62
     0
 92
       -2
340
0
 93
        0
 40
0.045
309
GRIDFORMAT_END
 95
        4
302
GRIDFORMAT
  1
GRIDFORMAT_BEGIN
 90
        0
 91
        1
 62
     0
 92
       -2
340
0
 93
        0
 40
0.045
309
GRIDFORMAT_END
 95
        8
302
GRIDFORMAT
  1
GRIDFORMAT_BEGIN
 90
        0
 91
        1
 62
     0
 92
       -2
340
0
 93
        0
 40
0.045
309
GRIDFORMAT_END
 95
       16
302
GRIDFORMAT
  1
GRIDFORMAT_BEGIN
 90
        0
 91
        1
 62
     0
 92
       -2
340
0
 93
        0
 40
0.045
309
GRIDFORMAT_END
 95
       32
302
GRIDFORMAT
  1
GRIDFORMAT_BEGIN
 90
        0
 91
        1
 62
     0
 92
       -2
340
0
 93
        0
 40
0.045
309
GRIDFORMAT_END
309
TABLEFORMAT_END
  1
CELLSTYLE_BEGIN
 90
        3
 91
        2
300
_DATA
309
CELLSTYLE_END
  0
XRECORD
  5
EBEA
102
{ACAD_REACTORS
330
EBE9
102
}
330
EBE9
100
AcDbXrecord
280
     1
102
RTVSPropertyOp0
 70
     1
102
RTVSPropertyOp1
 70
     1
102
RTVSPropertyOp2
 70
     1
102
RTVSPropertyOp3
 70
     1
102
RTVSPropertyOp4
 70
     1
102
RTVSPropertyOp5
 70
     1
102
RTVSPropertyOp6
 70
     1
102
RTVSPropertyOp7
 70
     1
102
RTVSPropertyOp8
 70
     1
102
RTVSPropertyOp9
 70
     1
102
RTVSPropertyOp10
 70
     1
102
RTVSPropertyOp11
 70
     1
102
RTVSPropertyOp12
 70
     1
102
RTVSPropertyOp13
 70
     1
102
RTVSPropertyOp14
 70
     1
102
RTVSPropertyOp15
 70
     1
102
RTVSPropertyOp16
 70
     1
102
RTVSPropertyOp17
 70
     1
102
RTVSPropertyOp18
 70
     1
102
RTVSPropertyOp19
 70
     1
102
RTVSPropertyOp20
 70
     1
102
RTVSPropertyOp21
 70
     1
102
RTVSPropertyOp22
 70
     1
102
RTVSPropertyOp23
 70
     1
102
RTVSPropertyOp24
 70
     1
102
RTVSPropertyOp25
 70
     1
102
RTVSPropertyOp26
 70
     1
102
RTVSPropertyOp27
 70
     1
  0
XRECORD
  5
EBEE
102
{ACAD_REACTORS
330
EBED
102
}
330
EBED
100
AcDbXrecord
280
     1
102
RTVSPropertyOp0
 70
     1
102
RTVSPropertyOp1
 70
     1
102
RTVSPropertyOp2
 70
     1
102
RTVSPropertyOp3
 70
     1
102
RTVSPropertyOp4
 70
     1
102
RTVSPropertyOp5
 70
     1
102
RTVSPropertyOp6
 70
     1
102
RTVSPropertyOp7
 70
     1
102
RTVSPropertyOp8
 70
     1
102
RTVSPropertyOp9
 70
     1
102
RTVSPropertyOp10
 70
     1
102
RTVSPropertyOp11
 70
     1
102
RTVSPropertyOp12
 70
     1
102
RTVSPropertyOp13
 70
     1
102
RTVSPropertyOp14
 70
     1
102
RTVSPropertyOp15
 70
     1
102
RTVSPropertyOp16
 70
     1
102
RTVSPropertyOp17
 70
     1
102
RTVSPropertyOp18
 70
     1
102
RTVSPropertyOp19
 70
     1
102
RTVSPropertyOp20
 70
     1
102
RTVSPropertyOp21
 70
     1
102
RTVSPropertyOp22
 70
     1
102
RTVSPropertyOp23
 70
     1
102
RTVSPropertyOp24
 70
     1
102
RTVSPropertyOp25
 70
     1
102
RTVSPropertyOp26
 70
     1
102
RTVSPropertyOp27
 70
     1
  0
XRECORD
  5
EBEC
102
{ACAD_REACTORS
330
EBEB
102
}
330
EBEB
100
AcDbXrecord
280
     1
102
RTVSPropertyOp0
 70
     1
102
RTVSPropertyOp1
 70
     1
102
RTVSPropertyOp2
 70
     1
102
RTVSPropertyOp3
 70
     1
102
RTVSPropertyOp4
 70
     1
102
RTVSPropertyOp5
 70
     1
102
RTVSPropertyOp6
 70
     1
102
RTVSPropertyOp7
 70
     1
102
RTVSPropertyOp8
 70
     1
102
RTVSPropertyOp9
 70
     1
102
RTVSPropertyOp10
 70
     1
102
RTVSPropertyOp11
 70
     1
102
RTVSPropertyOp12
 70
     1
102
RTVSPropertyOp13
 70
     1
102
RTVSPropertyOp14
 70
     1
102
RTVSPropertyOp15
 70
     1
102
RTVSPropertyOp16
 70
     1
102
RTVSPropertyOp17
 70
     1
102
RTVSPropertyOp18
 70
     1
102
RTVSPropertyOp19
 70
     1
102
RTVSPropertyOp20
 70
     1
102
RTVSPropertyOp21
 70
     1
102
RTVSPropertyOp22
 70
     1
102
RTVSPropertyOp23
 70
     1
102
RTVSPropertyOp24
 70
     1
102
RTVSPropertyOp25
 70
     1
102
RTVSPropertyOp26
 70
     1
102
RTVSPropertyOp27
 70
     1
  0
XRECORD
  5
EBE8
102
{ACAD_REACTORS
330
EBE7
102
}
330
EBE7
100
AcDbXrecord
280
     1
102
RTVSPropertyOp0
 70
     1
102
RTVSPropertyOp1
 70
     1
102
RTVSPropertyOp2
 70
     1
102
RTVSPropertyOp3
 70
     1
102
RTVSPropertyOp4
 70
     1
102
RTVSPropertyOp5
 70
     1
102
RTVSPropertyOp6
 70
     1
102
RTVSPropertyOp7
 70
     1
102
RTVSPropertyOp8
 70
     1
102
RTVSPropertyOp9
 70
     1
102
RTVSPropertyOp10
 70
     1
102
RTVSPropertyOp11
 70
     1
102
RTVSPropertyOp12
 70
     1
102
RTVSPropertyOp13
 70
     1
102
RTVSPropertyOp14
 70
     1
102
RTVSPropertyOp15
 70
     1
102
RTVSPropertyOp16
 70
     1
102
RTVSPropertyOp17
 70
     1
102
RTVSPropertyOp18
 70
     1
102
RTVSPropertyOp19
 70
     1
102
RTVSPropertyOp20
 70
     1
102
RTVSPropertyOp21
 70
     1
102
RTVSPropertyOp22
 70
     1
102
RTVSPropertyOp23
 70
     1
102
RTVSPropertyOp24
 70
     1
102
RTVSPropertyOp25
 70
     1
102
RTVSPropertyOp26
 70
     1
102
RTVSPropertyOp27
 70
     1
  0
XRECORD
  5
EBF6
102
{ACAD_REACTORS
330
EBF5
102
}
330
EBF5
100
AcDbXrecord
280
     1
102
RTVSPropertyOp0
 70
     1
102
RTVSPropertyOp1
 70
     1
102
RTVSPropertyOp2
 70
     1
102
RTVSPropertyOp3
 70
     1
102
RTVSPropertyOp4
 70
     1
102
RTVSPropertyOp5
 70
     1
102
RTVSPropertyOp6
 70
     1
102
RTVSPropertyOp7
 70
     1
102
RTVSPropertyOp8
 70
     1
102
RTVSPropertyOp9
 70
     1
102
RTVSPropertyOp10
 70
     1
102
RTVSPropertyOp11
 70
     1
102
RTVSPropertyOp12
 70
     1
102
RTVSPropertyOp13
 70
     1
102
RTVSPropertyOp14
 70
     1
102
RTVSPropertyOp15
 70
     1
102
RTVSPropertyOp16
 70
     1
102
RTVSPropertyOp17
 70
     1
102
RTVSPropertyOp18
 70
     1
102
RTVSPropertyOp19
 70
     1
102
RTVSPropertyOp20
 70
     1
102
RTVSPropertyOp21
 70
     1
102
RTVSPropertyOp22
 70
     1
102
RTVSPropertyOp23
 70
     1
102
RTVSPropertyOp24
 70
     1
102
RTVSPropertyOp25
 70
     1
102
RTVSPropertyOp26
 70
     1
102
RTVSPropertyOp27
 70
     1
  0
XRECORD
  5
EBFE
102
{ACAD_REACTORS
330
EBFD
102
}
330
EBFD
100
AcDbXrecord
280
     1
102
RTVSPropertyOp0
 70
     1
102
RTVSPropertyOp1
 70
     1
102
RTVSPropertyOp2
 70
     1
102
RTVSPropertyOp3
 70
     1
102
RTVSPropertyOp4
 70
     1
102
RTVSPropertyOp5
 70
     1
102
RTVSPropertyOp6
 70
     1
102
RTVSPropertyOp7
 70
     1
102
RTVSPropertyOp8
 70
     1
102
RTVSPropertyOp9
 70
     1
102
RTVSPropertyOp10
 70
     1
102
RTVSPropertyOp11
 70
     1
102
RTVSPropertyOp12
 70
     1
102
RTVSPropertyOp13
 70
     1
102
RTVSPropertyOp14
 70
     1
102
RTVSPropertyOp15
 70
     1
102
RTVSPropertyOp16
 70
     1
102
RTVSPropertyOp17
 70
     1
102
RTVSPropertyOp18
 70
     1
102
RTVSPropertyOp19
 70
     1
102
RTVSPropertyOp20
 70
     1
102
RTVSPropertyOp21
 70
     1
102
RTVSPropertyOp22
 70
     1
102
RTVSPropertyOp23
 70
     1
102
RTVSPropertyOp24
 70
     1
102
RTVSPropertyOp25
 70
     1
102
RTVSPropertyOp26
 70
     1
102
RTVSPropertyOp27
 70
     1
  0
XRECORD
  5
EBF0
102
{ACAD_REACTORS
330
EBEF
102
}
330
EBEF
100
AcDbXrecord
280
     1
102
RTVSPropertyOp0
 70
     1
102
RTVSPropertyOp1
 70
     1
102
RTVSPropertyOp2
 70
     1
102
RTVSPropertyOp3
 70
     1
102
RTVSPropertyOp4
 70
     1
102
RTVSPropertyOp5
 70
     1
102
RTVSPropertyOp6
 70
     1
102
RTVSPropertyOp7
 70
     1
102
RTVSPropertyOp8
 70
     1
102
RTVSPropertyOp9
 70
     1
102
RTVSPropertyOp10
 70
     1
102
RTVSPropertyOp11
 70
     1
102
RTVSPropertyOp12
 70
     1
102
RTVSPropertyOp13
 70
     1
102
RTVSPropertyOp14
 70
     1
102
RTVSPropertyOp15
 70
     1
102
RTVSPropertyOp16
 70
     1
102
RTVSPropertyOp17
 70
     1
102
RTVSPropertyOp18
 70
     1
102
RTVSPropertyOp19
 70
     1
102
RTVSPropertyOp20
 70
     1
102
RTVSPropertyOp21
 70
     1
102
RTVSPropertyOp22
 70
     1
102
RTVSPropertyOp23
 70
     1
102
RTVSPropertyOp24
 70
     1
102
RTVSPropertyOp25
 70
     1
102
RTVSPropertyOp26
 70
     1
102
RTVSPropertyOp27
 70
     1
  0
XRECORD
  5
EBF4
102
{ACAD_REACTORS
330
EBF3
102
}
330
EBF3
100
AcDbXrecord
280
     1
102
RTVSPropertyOp0
 70
     1
102
RTVSPropertyOp1
 70
     1
102
RTVSPropertyOp2
 70
     1
102
RTVSPropertyOp3
 70
     1
102
RTVSPropertyOp4
 70
     1
102
RTVSPropertyOp5
 70
     1
102
RTVSPropertyOp6
 70
     1
102
RTVSPropertyOp7
 70
     1
102
RTVSPropertyOp8
 70
     1
102
RTVSPropertyOp9
 70
     1
102
RTVSPropertyOp10
 70
     1
102
RTVSPropertyOp11
 70
     1
102
RTVSPropertyOp12
 70
     1
102
RTVSPropertyOp13
 70
     1
102
RTVSPropertyOp14
 70
     1
102
RTVSPropertyOp15
 70
     1
102
RTVSPropertyOp16
 70
     1
102
RTVSPropertyOp17
 70
     1
102
RTVSPropertyOp18
 70
     1
102
RTVSPropertyOp19
 70
     1
102
RTVSPropertyOp20
 70
     1
102
RTVSPropertyOp21
 70
     1
102
RTVSPropertyOp22
 70
     1
102
RTVSPropertyOp23
 70
     1
102
RTVSPropertyOp24
 70
     1
102
RTVSPropertyOp25
 70
     1
102
RTVSPropertyOp26
 70
     1
102
RTVSPropertyOp27
 70
     1
  0
XRECORD
  5
EBFC
102
{ACAD_REACTORS
330
EBFB
102
}
330
EBFB
100
AcDbXrecord
280
     1
102
RTVSPropertyOp0
 70
     1
102
RTVSPropertyOp1
 70
     1
102
RTVSPropertyOp2
 70
     1
102
RTVSPropertyOp3
 70
     1
102
RTVSPropertyOp4
 70
     1
102
RTVSPropertyOp5
 70
     1
102
RTVSPropertyOp6
 70
     1
102
RTVSPropertyOp7
 70
     1
102
RTVSPropertyOp8
 70
     1
102
RTVSPropertyOp9
 70
     1
102
RTVSPropertyOp10
 70
     1
102
RTVSPropertyOp11
 70
     1
102
RTVSPropertyOp12
 70
     1
102
RTVSPropertyOp13
 70
     1
102
RTVSPropertyOp14
 70
     1
102
RTVSPropertyOp15
 70
     1
102
RTVSPropertyOp16
 70
     1
102
RTVSPropertyOp17
 70
     1
102
RTVSPropertyOp18
 70
     1
102
RTVSPropertyOp19
 70
     1
102
RTVSPropertyOp20
 70
     1
102
RTVSPropertyOp21
 70
     1
102
RTVSPropertyOp22
 70
     1
102
RTVSPropertyOp23
 70
     1
102
RTVSPropertyOp24
 70
     1
102
RTVSPropertyOp25
 70
     1
102
RTVSPropertyOp26
 70
     1
102
RTVSPropertyOp27
 70
     1
  0
XRECORD
  5
EBE0
102
{ACAD_REACTORS
330
EBDF
102
}
330
EBDF
100
AcDbXrecord
280
     1
102
RTVSPropertyOp0
 70
     1
102
RTVSPropertyOp1
 70
     1
102
RTVSPropertyOp2
 70
     1
102
RTVSPropertyOp3
 70
     1
102
RTVSPropertyOp4
 70
     1
102
RTVSPropertyOp5
 70
     1
102
RTVSPropertyOp6
 70
     1
102
RTVSPropertyOp7
 70
     1
102
RTVSPropertyOp8
 70
     1
102
RTVSPropertyOp9
 70
     1
102
RTVSPropertyOp10
 70
     1
102
RTVSPropertyOp11
 70
     1
102
RTVSPropertyOp12
 70
     1
102
RTVSPropertyOp13
 70
     1
102
RTVSPropertyOp14
 70
     1
102
RTVSPropertyOp15
 70
     1
102
RTVSPropertyOp16
 70
     1
102
RTVSPropertyOp17
 70
     1
102
RTVSPropertyOp18
 70
     1
102
RTVSPropertyOp19
 70
     1
102
RTVSPropertyOp20
 70
     1
102
RTVSPropertyOp21
 70
     1
102
RTVSPropertyOp22
 70
     1
102
RTVSPropertyOp23
 70
     1
102
RTVSPropertyOp24
 70
     1
102
RTVSPropertyOp25
 70
     1
102
RTVSPropertyOp26
 70
     1
102
RTVSPropertyOp27
 70
     1
  0
XRECORD
  5
EBE2
102
{ACAD_REACTORS
330
EBE1
102
}
330
EBE1
100
AcDbXrecord
280
     1
102
RTVSPropertyOp0
 70
     1
102
RTVSPropertyOp1
 70
     1
102
RTVSPropertyOp2
 70
     1
102
RTVSPropertyOp3
 70
     1
102
RTVSPropertyOp4
 70
     1
102
RTVSPropertyOp5
 70
     1
102
RTVSPropertyOp6
 70
     1
102
RTVSPropertyOp7
 70
     1
102
RTVSPropertyOp8
 70
     1
102
RTVSPropertyOp9
 70
     1
102
RTVSPropertyOp10
 70
     1
102
RTVSPropertyOp11
 70
     1
102
RTVSPropertyOp12
 70
     1
102
RTVSPropertyOp13
 70
     1
102
RTVSPropertyOp14
 70
     1
102
RTVSPropertyOp15
 70
     1
102
RTVSPropertyOp16
 70
     1
102
RTVSPropertyOp17
 70
     1
102
RTVSPropertyOp18
 70
     1
102
RTVSPropertyOp19
 70
     1
102
RTVSPropertyOp20
 70
     1
102
RTVSPropertyOp21
 70
     1
102
RTVSPropertyOp22
 70
     1
102
RTVSPropertyOp23
 70
     1
102
RTVSPropertyOp24
 70
     1
102
RTVSPropertyOp25
 70
     1
102
RTVSPropertyOp26
 70
     1
102
RTVSPropertyOp27
 70
     1
  0
XRECORD
  5
EBE4
102
{ACAD_REACTORS
330
EBE3
102
}
330
EBE3
100
AcDbXrecord
280
     1
102
RTVSPropertyOp0
 70
     1
102
RTVSPropertyOp1
 70
     1
102
RTVSPropertyOp2
 70
     1
102
RTVSPropertyOp3
 70
     1
102
RTVSPropertyOp4
 70
     1
102
RTVSPropertyOp5
 70
     1
102
RTVSPropertyOp6
 70
     1
102
RTVSPropertyOp7
 70
     1
102
RTVSPropertyOp8
 70
     1
102
RTVSPropertyOp9
 70
     1
102
RTVSPropertyOp10
 70
     1
102
RTVSPropertyOp11
 70
     1
102
RTVSPropertyOp12
 70
     1
102
RTVSPropertyOp13
 70
     1
102
RTVSPropertyOp14
 70
     1
102
RTVSPropertyOp15
 70
     1
102
RTVSPropertyOp16
 70
     1
102
RTVSPropertyOp17
 70
     1
102
RTVSPropertyOp18
 70
     1
102
RTVSPropertyOp19
 70
     1
102
RTVSPropertyOp20
 70
     1
102
RTVSPropertyOp21
 70
     1
102
RTVSPropertyOp22
 70
     1
102
RTVSPropertyOp23
 70
     1
102
RTVSPropertyOp24
 70
     1
102
RTVSPropertyOp25
 70
     1
102
RTVSPropertyOp26
 70
     1
102
RTVSPropertyOp27
 70
     1
  0
XRECORD
  5
EBE6
102
{ACAD_REACTORS
330
EBE5
102
}
330
EBE5
100
AcDbXrecord
280
     1
102
RTVSPropertyOp0
 70
     1
102
RTVSPropertyOp1
 70
     1
102
RTVSPropertyOp2
 70
     1
102
RTVSPropertyOp3
 70
     1
102
RTVSPropertyOp4
 70
     1
102
RTVSPropertyOp5
 70
     1
102
RTVSPropertyOp6
 70
     1
102
RTVSPropertyOp7
 70
     1
102
RTVSPropertyOp8
 70
     1
102
RTVSPropertyOp9
 70
     1
102
RTVSPropertyOp10
 70
     1
102
RTVSPropertyOp11
 70
     1
102
RTVSPropertyOp12
 70
     1
102
RTVSPropertyOp13
 70
     1
102
RTVSPropertyOp14
 70
     1
102
RTVSPropertyOp15
 70
     1
102
RTVSPropertyOp16
 70
     1
102
RTVSPropertyOp17
 70
     1
102
RTVSPropertyOp18
 70
     1
102
RTVSPropertyOp19
 70
     1
102
RTVSPropertyOp20
 70
     1
102
RTVSPropertyOp21
 70
     1
102
RTVSPropertyOp22
 70
     1
102
RTVSPropertyOp23
 70
     1
102
RTVSPropertyOp24
 70
     1
102
RTVSPropertyOp25
 70
     1
102
RTVSPropertyOp26
 70
     1
102
RTVSPropertyOp27
 70
     1
  0
XRECORD
  5
EBFA
102
{ACAD_REACTORS
330
EBF9
102
}
330
EBF9
100
AcDbXrecord
280
     1
102
RTVSPropertyOp0
 70
     1
102
RTVSPropertyOp1
 70
     1
102
RTVSPropertyOp2
 70
     1
102
RTVSPropertyOp3
 70
     1
102
RTVSPropertyOp4
 70
     1
102
RTVSPropertyOp5
 70
     1
102
RTVSPropertyOp6
 70
     1
102
RTVSPropertyOp7
 70
     1
102
RTVSPropertyOp8
 70
     1
102
RTVSPropertyOp9
 70
     1
102
RTVSPropertyOp10
 70
     1
102
RTVSPropertyOp11
 70
     1
102
RTVSPropertyOp12
 70
     1
102
RTVSPropertyOp13
 70
     1
102
RTVSPropertyOp14
 70
     1
102
RTVSPropertyOp15
 70
     1
102
RTVSPropertyOp16
 70
     1
102
RTVSPropertyOp17
 70
     1
102
RTVSPropertyOp18
 70
     1
102
RTVSPropertyOp19
 70
     1
102
RTVSPropertyOp20
 70
     1
102
RTVSPropertyOp21
 70
     1
102
RTVSPropertyOp22
 70
     1
102
RTVSPropertyOp23
 70
     1
102
RTVSPropertyOp24
 70
     1
102
RTVSPropertyOp25
 70
     1
102
RTVSPropertyOp26
 70
     1
102
RTVSPropertyOp27
 70
     1
  0
XRECORD
  5
EBF2
102
{ACAD_REACTORS
330
EBF1
102
}
330
EBF1
100
AcDbXrecord
280
     1
102
RTVSPropertyOp0
 70
     1
102
RTVSPropertyOp1
 70
     1
102
RTVSPropertyOp2
 70
     1
102
RTVSPropertyOp3
 70
     1
102
RTVSPropertyOp4
 70
     1
102
RTVSPropertyOp5
 70
     1
102
RTVSPropertyOp6
 70
     1
102
RTVSPropertyOp7
 70
     1
102
RTVSPropertyOp8
 70
     1
102
RTVSPropertyOp9
 70
     1
102
RTVSPropertyOp10
 70
     1
102
RTVSPropertyOp11
 70
     1
102
RTVSPropertyOp12
 70
     1
102
RTVSPropertyOp13
 70
     1
102
RTVSPropertyOp14
 70
     1
102
RTVSPropertyOp15
 70
     1
102
RTVSPropertyOp16
 70
     1
102
RTVSPropertyOp17
 70
     1
102
RTVSPropertyOp18
 70
     1
102
RTVSPropertyOp19
 70
     1
102
RTVSPropertyOp20
 70
     1
102
RTVSPropertyOp21
 70
     1
102
RTVSPropertyOp22
 70
     1
102
RTVSPropertyOp23
 70
     1
102
RTVSPropertyOp24
 70
     1
102
RTVSPropertyOp25
 70
     1
102
RTVSPropertyOp26
 70
     1
102
RTVSPropertyOp27
 70
     1
  0
XRECORD
  5
EBF8
102
{ACAD_REACTORS
330
EBF7
102
}
330
EBF7
100
AcDbXrecord
280
     1
102
RTVSPropertyOp0
 70
     1
102
RTVSPropertyOp1
 70
     1
102
RTVSPropertyOp2
 70
     1
102
RTVSPropertyOp3
 70
     1
102
RTVSPropertyOp4
 70
     1
102
RTVSPropertyOp5
 70
     1
102
RTVSPropertyOp6
 70
     1
102
RTVSPropertyOp7
 70
     1
102
RTVSPropertyOp8
 70
     1
102
RTVSPropertyOp9
 70
     1
102
RTVSPropertyOp10
 70
     1
102
RTVSPropertyOp11
 70
     1
102
RTVSPropertyOp12
 70
     1
102
RTVSPropertyOp13
 70
     1
102
RTVSPropertyOp14
 70
     1
102
RTVSPropertyOp15
 70
     1
102
RTVSPropertyOp16
 70
     1
102
RTVSPropertyOp17
 70
     1
102
RTVSPropertyOp18
 70
     1
102
RTVSPropertyOp19
 70
     1
102
RTVSPropertyOp20
 70
     1
102
RTVSPropertyOp21
 70
     1
102
RTVSPropertyOp22
 70
     1
102
RTVSPropertyOp23
 70
     1
102
RTVSPropertyOp24
 70
     1
102
RTVSPropertyOp25
 70
     1
102
RTVSPropertyOp26
 70
     1
102
RTVSPropertyOp27
 70
     1
  0
ENDSEC
  0
EOF
